<?xml version="1.0" standalone="no"?>
<!DOCTYPE svg PUBLIC "-//W3C//DTD SVG 1.1//EN" "http://www.w3.org/Graphics/SVG/1.1/DTD/svg11.dtd" >
<svg>
<metadata>
Created by FontForge 20120731 at Tue Apr 23 11:34:05 2019
 By www-data
(c) 1992, 1994, 1997, 2000, 2004 Adobe Systems Incorporated. All rights reserved.
</metadata>
<defs>
<font id="MyriadPro-Regular" horiz-adv-x="513" >
  <font-face 
    font-family="Myriad Pro"
    font-weight="400"
    font-stretch="normal"
    units-per-em="1000"
    panose-1="2 11 5 3 3 4 3 2 2 4"
    ascent="750"
    descent="-250"
    x-height="484"
    cap-height="674"
    bbox="-157 -250 970 881"
    underline-thickness="50"
    underline-position="-50"
    unicode-range="U+0020-E006"
  />
<missing-glyph horiz-adv-x="500" 
d="M0 700h500v-700h-500v700zM420 650h-340l170 -255zM450 95v510l-170 -255zM420 50l-170 255l-170 -255h340zM50 95l170 255l-170 255v-510z" />
    <glyph glyph-name="f_f_j" unicode="ffj" horiz-adv-x="809" 
d="M679 624q-17 11 -42.5 18.5t-55.5 7.5q-35 0 -58 -11.5t-37 -31t-20 -45t-6 -54.5v-24h282v-439q0 -71 -13 -118.5t-45 -80.5q-15 -15 -33.5 -25t-38.5 -17t-40 -10t-38 -3l-9 69q30 2 55 11t41 26q9 10 15.5 23.5t10 34.5t5.5 50.5t2 73.5v338h-193v-417h-88v417h-204
v-417h-87v417h-68v67h68v18q0 46 13 88t45 73q21 22 52 34.5t72 12.5q25 0 48 -7t37 -14l-24 -65q-11 6 -27.5 11.5t-33.5 5.5q-21 0 -36.5 -7t-26.5 -19q-18 -20 -25 -50t-7 -62v-19h204v26q0 96 55 153.5t157 57.5q33 0 66.5 -8.5t53.5 -22.5z" />
    <glyph glyph-name="f_j" unicode="fj" horiz-adv-x="522" 
d="M82 0v417h-68v67h68v26q0 96 54.5 153.5t156.5 57.5q34 0 69 -9t54 -23l-25 -67q-16 11 -43 19.5t-59 8.5q-35 0 -58 -11.5t-37 -31t-19.5 -45t-5.5 -54.5v-24h281v-439q0 -71 -13 -118.5t-45 -80.5q-14 -15 -32.5 -25t-39 -17t-40.5 -10t-38 -3l-9 69q31 2 55.5 11
t40.5 26q9 10 15.5 23.5t10.5 34.5t6 50.5t2 73.5v338h-194v-417h-87z" />
    <glyph glyph-name="f_f" unicode="ff" horiz-adv-x="583" 
d="M372 0v417h-203v-417h-87v417h-68v67h68v16q0 51 12.5 93.5t41.5 71.5q21 21 51 33t71 12q21 0 39.5 -5.5t29.5 -11.5l-18 -65q-10 5 -23.5 8.5t-28.5 3.5q-26 0 -43 -10.5t-27 -28.5t-14 -43t-4 -53v-21h203v23q0 51 13 95.5t44 73.5q25 24 56 34.5t61 10.5
q24 0 43 -4.5t32 -9.5l-11 -68q-11 5 -24 8t-33 3q-28 0 -46 -11.5t-28.5 -31t-15 -44.5t-4.5 -53v-26h117v-67h-116v-417h-88z" />
    <glyph glyph-name="f_f_i" unicode="ffi" horiz-adv-x="815" 
d="M679 624q-17 11 -42.5 18.5t-55.5 7.5q-35 0 -58 -11.5t-37 -31t-20 -45t-6 -54.5v-24h282v-484h-88v417h-193v-417h-88v417h-204v-417h-87v417h-68v67h68v18q0 46 13 88t45 73q21 22 52 34.5t72 12.5q25 0 48 -7t37 -14l-24 -65q-11 6 -27.5 11.5t-33.5 5.5
q-21 0 -36.5 -7t-26.5 -19q-18 -20 -25 -50t-7 -62v-19h204v26q0 96 55 153.5t157 57.5q33 0 66.5 -8.5t53.5 -22.5z" />
    <glyph glyph-name="f_f_l" unicode="ffl" horiz-adv-x="815" 
d="M326 626q-14 7 -29 11t-31 4q-41 0 -65 -26q-18 -20 -25 -49t-7 -62v-20h204v21q0 51 17.5 94t51.5 73q28 24 66 36.5t89 12.5q42 0 79.5 -8.5t65.5 -23.5v-689h-87v640q-12 6 -29.5 9.5t-43.5 3.5q-34 0 -57.5 -11.5t-37.5 -31.5t-20.5 -46.5t-6.5 -55.5v-24h114v-67
h-113v-417h-88v417h-204v-417h-87v417h-68v67h68v12q0 48 12 91.5t44 74.5q23 23 56 35.5t75 12.5q24 0 46.5 -6.5t33.5 -11.5z" />
    <glyph glyph-name="f_i" unicode="fi" horiz-adv-x="523" 
d="M82 0v417h-68v67h68v26q0 96 54.5 153.5t156.5 57.5q34 0 69 -9t54 -23l-25 -67q-16 11 -43 19.5t-59 8.5q-35 0 -58 -11.5t-37 -31t-19.5 -45t-5.5 -54.5v-24h281v-484h-87v417h-194v-417h-87z" />
    <glyph glyph-name="f_l" unicode="fl" horiz-adv-x="523" 
d="M82 0v417h-68v67h68v21q0 51 17 94t51 73q29 24 66.5 36.5t88.5 12.5q42 0 80 -8.5t65 -23.5v-689h-87v640q-11 6 -28.5 9.5t-43.5 3.5q-35 0 -58 -11.5t-37.5 -31.5t-20.5 -46.5t-6 -55.5v-24h113v-67h-113v-417h-87z" />
    <glyph glyph-name=".notdef" horiz-adv-x="500" 
d="M0 700h500v-700h-500v700zM420 650h-340l170 -255zM450 95v510l-170 -255zM420 50l-170 255l-170 -255h340zM50 95l170 255l-170 255v-510z" />
    <glyph glyph-name=".null" horiz-adv-x="0" 
 />
    <glyph glyph-name="nonmarkingreturn" horiz-adv-x="333" 
 />
    <glyph glyph-name="space" unicode=" " horiz-adv-x="212" 
 />
    <glyph glyph-name="space" unicode="&#xa0;" horiz-adv-x="212" 
 />
    <glyph glyph-name="exclam" unicode="!" horiz-adv-x="230" 
d="M81 194l-14 480h96l-14 -480h-68zM115 -11q-26 0 -42.5 18t-16.5 44q0 27 16.5 44.5t42.5 17.5q27 0 43 -17.5t16 -44.5q0 -26 -16 -44t-43 -18z" />
    <glyph glyph-name="quotedbl" unicode="&#x22;" horiz-adv-x="337" 
d="M138 685l-17 -240h-54l-16 240h87zM287 685l-17 -240h-53l-17 240h87z" />
    <glyph glyph-name="numbersign" unicode="#" horiz-adv-x="497" 
d="M292 255l19 145h-104l-19 -145h104zM93 0l26 196h-82v59h91l19 145h-86v59h95l26 191h58l-25 -191h104l26 191h59l-25 -191h82v-59h-91l-18 -145h86v-59h-95l-26 -196h-60l26 196h-104l-26 -196h-60z" />
    <glyph glyph-name="dollar" unicode="$" 
d="M218 -86v101q-44 1 -85.5 13t-67.5 31l24 67q27 -18 64.5 -30.5t79.5 -12.5q54 0 86.5 27.5t32.5 70.5q0 42 -28.5 69t-84.5 50q-77 30 -121 69t-44 104q0 62 41 106t110 55v101h62v-97q45 -2 76.5 -12t53.5 -23l-25 -66q-16 9 -47 21.5t-79 12.5q-29 0 -49 -8t-33 -20
t-18.5 -27.5t-5.5 -30.5q0 -39 29.5 -63t94.5 -51q78 -32 116.5 -74t38.5 -109q0 -30 -10 -57.5t-30 -50.5t-49.5 -39.5t-68.5 -22.5v-104h-63z" />
    <glyph glyph-name="percent" unicode="%" horiz-adv-x="792" 
d="M187 661q69 0 110 -50t41 -144q0 -51 -12.5 -89.5t-34 -64t-50 -38.5t-59.5 -13q-30 0 -57.5 12t-48.5 36.5t-33.5 61.5t-12.5 86t12.5 86.5t34 63.5t50 39.5t60.5 13.5zM184 608q-21 0 -36.5 -11.5t-26 -31.5t-16 -46.5t-5.5 -57.5q-1 -31 4.5 -58t16 -46.5t26.5 -30.5
t37 -11q43 0 63.5 41.5t20.5 106.5q0 30 -4.5 56t-14.5 46t-26 31.5t-39 11.5zM176 -11l382 672h56l-382 -672h-56zM611 392q69 0 109.5 -50t40.5 -144q0 -51 -12.5 -89.5t-34 -64t-49.5 -38.5t-59 -13q-30 0 -57.5 12t-48.5 36.5t-33.5 61t-12.5 85.5t12.5 87t34 64
t50 39.5t60.5 13.5zM608 339q-21 0 -36.5 -11.5t-26.5 -31.5t-16.5 -46.5t-5.5 -57.5t5.5 -58t16.5 -46.5t27 -30.5t36 -11q43 0 63.5 41.5t20.5 106.5q0 30 -4.5 56t-14.5 46t-26 31.5t-39 11.5z" />
    <glyph glyph-name="ampersand" unicode="&#x26;" horiz-adv-x="605" 
d="M498 0q-14 14 -28.5 29.5t-34.5 36.5q-44 -41 -92.5 -59t-104.5 -18q-49 0 -87.5 15.5t-65 41.5t-40.5 60t-14 72q0 69 37 117t95 80v3q-26 33 -41 69t-15 72q0 31 11 60.5t32.5 53t53.5 38t74 14.5q31 0 58.5 -10t47.5 -29t31.5 -45t11.5 -59q0 -54 -33.5 -97
t-114.5 -83v-3q21 -25 43.5 -50.5t44 -50t41 -47t35.5 -40.5q45 69 65 197h80q-14 -80 -36.5 -142t-60.5 -107l54 -58t57 -61h-104zM253 55q44 0 79.5 17.5t59.5 43.5q-15 16 -36 39.5t-46 51t-52.5 58.5t-55.5 63q-14 -9 -29 -21.5t-28 -29t-21.5 -38t-8.5 -48.5
q0 -29 10 -54t28.5 -43t44 -28.5t55.5 -10.5zM272 625q-42 0 -63.5 -29.5t-21.5 -68.5q0 -36 14.5 -65t36.5 -56q51 29 81.5 59t30.5 73q0 15 -4.5 30.5t-14 28t-24 20.5t-35.5 8z" />
    <glyph glyph-name="quotesingle" unicode="'" horiz-adv-x="188" 
d="M138 685l-17 -240h-54l-16 240h87z" />
    <glyph glyph-name="parenleft" unicode="(" horiz-adv-x="284" 
d="M264 694q-55 -74 -90.5 -173.5t-35.5 -235.5q0 -67 9.5 -124.5t26.5 -107.5t40 -93.5t50 -80.5h-69q-24 31 -47 71t-42 90t-30.5 111t-11.5 134q0 74 12 135.5t30.5 111.5t41.5 90t47 72h69z" />
    <glyph glyph-name="parenright" unicode=")" horiz-adv-x="284" 
d="M20 -121q27 37 50 80.5t40 94t26.5 108.5t9.5 126q0 134 -36 233t-90 173h68q24 -31 47.5 -70.5t42 -90t30 -111.5t11.5 -135t-11.5 -134.5t-30 -111t-42 -90.5t-47.5 -72h-68z" />
    <glyph glyph-name="asterisk" unicode="*" horiz-adv-x="415" 
d="M329 651l-95 -125v-2l151 20v-68l-151 18v-2l96 -120l-63 -36l-60 140h-2l-65 -141l-57 36l95 122v2l-148 -19v68l147 -19v2l-94 122l61 35l62 -139h2l61 140z" />
    <glyph glyph-name="plus" unicode="+" horiz-adv-x="596" 
d="M330 532v-235h226v-60h-226v-237h-64v237h-226v60h226v235h64z" />
    <glyph glyph-name="comma" unicode="," horiz-adv-x="207" 
d="M16 -123q8 22 17 52t17 62.5t15 65t11 59.5l98 10q-9 -32 -21 -67.5t-25 -68.5t-26 -61t-23 -46z" />
    <glyph glyph-name="hyphen" unicode="-" horiz-adv-x="307" 
d="M277 303v-65h-247v65h247z" />
    <glyph glyph-name="period" unicode="." horiz-adv-x="207" 
d="M111 -11q-26 0 -42.5 18t-16.5 45q0 28 17 45.5t43 17.5t42.5 -17.5t16.5 -45.5q0 -27 -16 -45t-44 -18z" />
    <glyph glyph-name="slash" unicode="/" horiz-adv-x="343" 
d="M-1 -40l279 725h68l-280 -725h-67z" />
    <glyph glyph-name="zero" unicode="0" 
d="M262 661q103 0 159 -86.5t56 -242.5q0 -167 -58.5 -255t-167.5 -88q-96 0 -154.5 86t-60.5 248q0 82 16.5 145t46.5 106t71.5 65t91.5 22zM257 593q-58 0 -95.5 -68.5t-37.5 -202.5q0 -128 36 -196.5t96 -68.5q34 0 59 19t41.5 54t24.5 85.5t8 112.5q0 60 -8 109
t-24 83.5t-41 53.5t-59 19z" />
    <glyph glyph-name="one" unicode="1" 
d="M236 568h-2l-113 -61l-17 67l142 76h75v-650h-85v568z" />
    <glyph glyph-name="two" unicode="2" 
d="M45 0v54l69 67q62 59 107.5 106t75.5 86.5t44.5 75t14.5 72.5q0 25 -6.5 48t-21.5 40.5t-40 28t-61 10.5q-45 0 -80 -18t-58 -37l-28 62q34 29 80.5 47.5t103.5 18.5q52 0 90 -16.5t62 -43t35.5 -60.5t11.5 -69q0 -45 -15.5 -86.5t-45 -83.5t-71 -86t-92.5 -93l-52 -48
v-2h292v-73h-415z" />
    <glyph glyph-name="three" unicode="3" 
d="M66 101q19 -12 58.5 -26.5t85.5 -14.5q42 0 70.5 12t45.5 30.5t24 41t7 42.5q0 34 -14.5 58.5t-38 40.5t-53.5 23.5t-62 7.5h-49v66h49q24 0 49.5 6.5t47 20t35 34t13.5 49.5q0 39 -26.5 68.5t-87.5 29.5q-39 0 -74 -14t-56 -29l-23 64q26 19 71.5 34.5t98.5 15.5
q48 0 83 -13t58 -35t34 -49.5t11 -57.5q0 -51 -30 -91t-90 -62v-2q30 -6 56.5 -20t46 -35.5t31 -49.5t11.5 -62q0 -39 -15 -74.5t-45 -62t-74.5 -42.5t-102.5 -16q-55 0 -100 14t-69 30z" />
    <glyph glyph-name="four" unicode="4" 
d="M317 0v177h-302v58l290 415h95v-404h91v-69h-91v-177h-83zM317 246v217q0 51 3 102h-3q-15 -29 -27.5 -51t-26.5 -45l-159 -221v-2h213z" />
    <glyph glyph-name="five" unicode="5" 
d="M433 576h-248l-25 -167q11 2 23 3t30 1q38 0 74 -8.5t66 -26.5q38 -22 65.5 -63.5t27.5 -103.5q0 -48 -18 -88.5t-50 -70t-76.5 -46.5t-97.5 -17q-54 0 -96.5 12.5t-65.5 27.5l22 67q20 -12 57 -24t82 -12q31 0 59 10t49 28t33.5 44t12.5 59q0 31 -11 57.5t-34 46t-58 30
t-84 10.5q-28 0 -50 -2.5t-40 -4.5l42 312h311v-74z" />
    <glyph glyph-name="six" unicode="6" 
d="M416 588q-14 1 -30.5 0t-35.5 -4q-52 -9 -91.5 -31t-67.5 -53t-44.5 -69t-22.5 -78h3q23 31 63 53t94 22q43 0 79 -15t62 -42.5t40.5 -66t14.5 -86.5q0 -45 -15 -86t-42.5 -73t-67.5 -51t-91 -19q-52 0 -94.5 19.5t-72.5 55.5t-46.5 87.5t-16.5 114.5q0 97 31 171t79 122
q41 40 93.5 64t114.5 32q20 3 36 4t28 1v-72zM264 57q57 0 92 43t35 113t-36.5 109.5t-97.5 39.5q-40 0 -74 -22.5t-52 -57.5q-10 -17 -10 -39q1 -40 10.5 -74t27.5 -59t44 -39t61 -14z" />
    <glyph glyph-name="seven" unicode="7" 
d="M467 650v-58l-283 -592h-91l282 575v2h-318v73h410z" />
    <glyph glyph-name="eight" unicode="8" 
d="M255 -11q-51 0 -91.5 14t-68.5 38t-43 56t-15 68q0 62 34.5 105t94.5 69l-1 3q-54 26 -78.5 65t-24.5 81q0 39 15.5 70.5t42.5 54.5t63.5 35.5t79.5 12.5q47 0 82.5 -13.5t59 -36t35.5 -51.5t12 -59q0 -42 -23.5 -82.5t-83.5 -69.5v-3q61 -24 96 -66t35 -102
q0 -42 -17 -77t-47 -60t-70.5 -38.5t-86.5 -13.5zM257 53q60 0 95 32.5t35 83.5q0 59 -38.5 91t-104.5 51q-57 -17 -87 -52t-30 -82q-1 -25 7.5 -47.5t25.5 -39.5t41.5 -27t55.5 -10zM258 598q-55 0 -84 -31t-29 -73q0 -49 33.5 -77t90.5 -43q42 14 70.5 43.5t28.5 74.5
q0 19 -6 38t-19.5 34t-34 24.5t-50.5 9.5z" />
    <glyph glyph-name="nine" unicode="9" 
d="M96 62q14 -2 31 -0.5t40 3.5q38 5 73 21t63 42q32 29 54.5 72t31.5 101h-3q-27 -33 -65.5 -51.5t-87.5 -18.5q-44 0 -79.5 15.5t-60.5 42.5t-38.5 63t-13.5 78q0 46 16 88t45 73.5t70 50.5t91 19t90 -19.5t67.5 -55.5t42.5 -86.5t15 -112.5q0 -108 -32 -183t-80 -122
q-38 -37 -87 -59t-102 -28q-24 -4 -44.5 -5t-36.5 0v72zM256 594q-28 0 -51.5 -12t-40.5 -33t-26.5 -50t-9.5 -63q0 -61 34 -99.5t91 -38.5q45 0 78 19.5t50 48.5q8 13 8 32q0 42 -8 77.5t-24 62t-41.5 41.5t-59.5 15z" />
    <glyph glyph-name="colon" unicode=":" horiz-adv-x="207" 
d="M111 342q-26 0 -42.5 18t-16.5 44q0 28 17 45.5t43 17.5t42 -17.5t17 -45.5q0 -26 -16 -44t-44 -18zM111 -11q-26 0 -42.5 18t-16.5 44q0 28 17 45.5t43 17.5t42 -17.5t17 -45.5q0 -26 -16 -44t-44 -18z" />
    <glyph glyph-name="semicolon" unicode=";" horiz-adv-x="207" 
d="M17 -123q8 22 17 52t17 62.5t15 65t11 59.5l97 10q-9 -32 -21 -67.5t-25.5 -68.5t-26.5 -61t-23 -46zM119 342q-26 0 -42.5 18t-16.5 44q0 28 16.5 45.5t42.5 17.5q27 0 43 -17.5t16 -45.5q0 -26 -16 -44t-43 -18z" />
    <glyph glyph-name="less" unicode="&#x3c;" horiz-adv-x="596" 
d="M66 293l464 239v-69l-391 -196v-2l391 -196v-69l-464 239v54z" />
    <glyph glyph-name="equal" unicode="=" horiz-adv-x="596" 
d="M40 337v60h516v-60h-516zM40 141v60h516v-60h-516z" />
    <glyph glyph-name="greater" unicode="&#x3e;" horiz-adv-x="596" 
d="M530 238l-464 -238v69l394 196v2l-394 196v69l464 -238v-56z" />
    <glyph glyph-name="question" unicode="?" horiz-adv-x="406" 
d="M141 191l-2 26q-5 41 9.5 84.5t52.5 88.5q34 40 52 71.5t18 65.5q0 38 -23.5 61.5t-71.5 24.5q-27 0 -54.5 -8.5t-46.5 -22.5l-24 63q25 18 64 29t79 11q43 0 74.5 -12.5t52 -32.5t30.5 -47t10 -55q0 -51 -25 -91t-61 -83q-33 -39 -46 -74t-11 -73l1 -26h-78zM178 -11
q-26 0 -42.5 18t-16.5 44q0 28 17 45.5t43 17.5t42.5 -17.5t16.5 -45.5q0 -26 -16 -44t-44 -18z" />
    <glyph glyph-name="at" unicode="@" horiz-adv-x="737" 
d="M469 368q-8 2 -20.5 4.5t-29.5 2.5q-33 0 -62 -14.5t-50.5 -39t-34 -57.5t-12.5 -69q0 -33 16.5 -54.5t49.5 -21.5q22 0 42 12.5t36.5 32t28 44t15.5 47.5zM524 -64q-42 -22 -84.5 -31t-93.5 -9q-62 0 -117 21.5t-96 62t-65.5 98.5t-24.5 130q0 77 26 147t73.5 122.5
t115 83.5t150.5 31q65 0 118.5 -21.5t92 -60t59.5 -91.5t21 -116q0 -56 -14.5 -100.5t-39 -75t-57 -46.5t-67.5 -16q-30 0 -53 21t-21 67h-4q-52 -88 -141 -88q-22 0 -41.5 8.5t-34.5 25t-23.5 39.5t-8.5 53q0 46 17.5 89t49 76t75 52.5t95.5 19.5q32 0 59.5 -6t47.5 -15
l-34 -181q-11 -57 -3 -84t33 -28q19 0 38.5 12t35 35.5t25 57.5t9.5 78q0 54 -16 100t-47 79t-76 51.5t-103 18.5q-61 0 -115.5 -23.5t-95.5 -66.5t-65 -104.5t-24 -137.5q0 -63 19.5 -113t53.5 -85t81 -53.5t103 -18.5q43 0 81.5 9t69.5 26z" />
    <glyph glyph-name="A" unicode="A" horiz-adv-x="612" 
d="M185 212l-70 -212h-90l229 674h105l230 -674h-93l-72 212h-239zM406 280l-66 194q-11 33 -19 63.5t-16 59.5h-2q-8 -30 -16 -60.5t-18 -61.5l-66 -195h203z" />
    <glyph glyph-name="B" unicode="B" horiz-adv-x="542" 
d="M76 665q29 6 71 10t88 4q66 0 109.5 -11.5t75.5 -37.5q26 -20 41 -49.5t15 -69.5q0 -49 -30 -88.5t-84 -59.5v-2q24 -6 48.5 -19t45 -34t33 -50t12.5 -66q0 -44 -15.5 -77t-41.5 -58q-69 -63 -233 -63q-45 0 -79 2.5t-56 5.5v663zM163 389h79q69 0 107.5 32t38.5 81
q0 59 -41 84.5t-107 25.5q-30 0 -48 -2t-29 -4v-217zM163 66q13 -2 31.5 -3t41.5 -1q34 0 65 6.5t55 22t38.5 40.5t14.5 62q0 34 -14 59t-37.5 40.5t-55 23t-67.5 7.5h-72v-257z" />
    <glyph glyph-name="C" unicode="C" horiz-adv-x="580" 
d="M547 22q-24 -12 -70 -22t-108 -10q-71 0 -132 22t-105.5 65.5t-70 107t-25.5 146.5q0 79 25.5 144.5t72 112t111.5 72t143 25.5q63 0 103 -10.5t57 -19.5l-21 -71q-25 12 -59.5 20t-76.5 8q-59 0 -107.5 -18.5t-83 -54t-53.5 -87.5t-19 -118q0 -62 17.5 -112t50.5 -85.5
t81 -54.5t110 -19q40 0 78 7.5t64 20.5z" />
    <glyph glyph-name="D" unicode="D" horiz-adv-x="666" 
d="M76 665q40 6 86.5 10t98.5 4q94 0 161 -21t112 -63t70 -101t25 -141q0 -83 -24.5 -149t-72.5 -113q-48 -48 -123.5 -72.5t-174.5 -24.5q-47 0 -86 2t-72 6v663zM163 69q17 -3 39.5 -4t48.5 -1q140 0 213.5 74.5t73.5 211.5q0 60 -16.5 108t-50.5 81.5t-85.5 52
t-120.5 18.5q-34 0 -59.5 -2.5t-42.5 -6.5v-532z" />
    <glyph glyph-name="E" unicode="E" horiz-adv-x="492" 
d="M425 316h-262v-243h292v-73h-379v674h364v-73h-277v-213h262v-72z" />
    <glyph glyph-name="F" unicode="F" horiz-adv-x="487" 
d="M76 674h363v-73h-276v-224h255v-72h-255v-305h-87v674z" />
    <glyph glyph-name="G" unicode="G" horiz-adv-x="646" 
d="M589 30q-29 -11 -83.5 -24t-123.5 -13q-77 0 -139.5 20.5t-112.5 68.5q-44 42 -69 107t-25 144q0 75 25.5 139t72.5 110.5t114.5 72.5t152.5 26q59 0 102.5 -10t65.5 -21l-21 -71q-27 12 -62.5 20.5t-86.5 8.5q-62 0 -112 -18.5t-85 -53.5t-54.5 -85.5t-19.5 -113.5
q0 -64 18.5 -114.5t52.5 -85.5t82 -53.5t107 -18.5q43 0 72 5t44 13v201h-137v70h222v-324z" />
    <glyph glyph-name="H" unicode="H" horiz-adv-x="652" 
d="M163 674v-282h326v282h88v-674h-88v316h-326v-316h-87v674h87z" />
    <glyph glyph-name="I" unicode="I" horiz-adv-x="239" 
d="M163 674v-674h-87v674h87z" />
    <glyph glyph-name="J" unicode="J" horiz-adv-x="370" 
d="M214 674h87v-451q0 -67 -15.5 -112t-43 -72t-65 -38.5t-80.5 -11.5q-24 0 -50 4.5t-43 11.5l13 71q14 -5 32.5 -9t40.5 -4q29 0 52 7.5t39 26.5t24.5 51t8.5 82v444z" />
    <glyph glyph-name="K" unicode="K" horiz-adv-x="542" 
d="M76 674h87v-325h3q14 20 27 37.5t26 34.5l206 253h108l-244 -286l263 -388h-103l-222 331l-64 -74v-257h-87v674z" />
    <glyph glyph-name="L" unicode="L" horiz-adv-x="472" 
d="M76 674h87v-601h288v-73h-375v674z" />
    <glyph glyph-name="M" unicode="M" horiz-adv-x="804" 
d="M644 296q-2 35 -4 73t-3.5 76t-2 74t-0.5 68h-3q-17 -60 -38 -123t-47 -133l-119 -327h-66l-109 321q-24 72 -44 137t-34 125h-2q-2 -63 -5 -142.5t-8 -155.5l-18 -289h-83l47 674h111l115 -326q21 -63 38 -118.5t30 -108.5h3q13 51 30.5 107t40.5 120l120 326h111
l42 -674h-85z" />
    <glyph glyph-name="N" unicode="N" horiz-adv-x="658" 
d="M76 0v674h95l216 -341q38 -60 67.5 -113.5t53.5 -105.5l2 1q-6 68 -8 133t-2 144v282h82v-674h-88l-214 342q-35 57 -67.5 113.5t-58.5 111.5l-3 -1q4 -64 5.5 -129t1.5 -149v-288h-82z" />
    <glyph glyph-name="O" unicode="O" horiz-adv-x="689" 
d="M349 685q69 0 125 -25t95.5 -70.5t61 -108t21.5 -137.5q0 -87 -24.5 -153.5t-67.5 -111t-100 -67.5t-121 -23q-67 0 -122.5 24.5t-95.5 69.5t-62.5 108t-22.5 140q0 80 23.5 145.5t65.5 112t99 71.5t125 25zM345 614q-54 0 -94.5 -23t-67.5 -62t-40.5 -90t-13.5 -106
q0 -54 14.5 -103.5t42 -87t67.5 -60t91 -22.5q52 0 92 22t67.5 60.5t42 89.5t14.5 108q0 50 -13 99t-40 88t-67.5 63t-94.5 24z" />
    <glyph glyph-name="P" unicode="P" horiz-adv-x="532" 
d="M76 666q32 5 73 9t94 4q127 0 189 -56q28 -24 43.5 -60t15.5 -81q0 -90 -52 -144q-35 -37 -88.5 -55.5t-117.5 -18.5q-20 0 -37.5 1t-32.5 5v-270h-87v666zM163 341q27 -7 72 -7q79 0 124 37t45 107q0 67 -43.5 99.5t-115.5 32.5q-29 0 -50 -2t-32 -5v-262z" />
    <glyph glyph-name="Q" unicode="Q" horiz-adv-x="689" 
d="M632 -99q-69 18 -134 38t-124 40q-11 4 -21 7t-20 3q-60 2 -114 25t-94.5 66t-64.5 106t-24 144t23.5 146.5t65.5 112t99.5 71.5t125.5 25q69 0 124.5 -25.5t95 -70.5t61 -107.5t21.5 -137.5q0 -65 -14.5 -118t-40 -93.5t-60.5 -68.5t-77 -43v-4q51 -13 102.5 -24
t94.5 -19zM343 60q52 0 92.5 22t68 60t42 89t14.5 109q0 51 -13 100t-39.5 87.5t-66.5 62.5t-94 24q-55 0 -96 -23.5t-68.5 -62.5t-40.5 -90t-13 -106q0 -54 14 -103t41.5 -86.5t67.5 -60t91 -22.5z" />
    <glyph glyph-name="R" unicode="R" horiz-adv-x="538" 
d="M76 665q33 7 77.5 10.5t89.5 3.5q70 0 116.5 -13t78.5 -42q26 -23 39.5 -56t13.5 -72q0 -33 -10 -61t-27 -49.5t-40 -37t-50 -24.5v-3q39 -14 63 -48.5t36 -87.5q17 -71 29 -118t23 -67h-90q-8 14 -19.5 56t-25.5 105q-15 70 -45.5 99.5t-89.5 31.5h-82v-292h-87v665z
M163 358h89q70 0 111 35t41 93q0 66 -43 95.5t-112 30.5q-32 0 -53.5 -2.5t-32.5 -5.5v-246z" />
    <glyph glyph-name="S" unicode="S" horiz-adv-x="493" 
d="M64 106q29 -18 70 -31t86 -13q67 0 104 32t37 83q0 47 -29.5 77.5t-97.5 56.5q-83 29 -130.5 74.5t-47.5 116.5q0 39 15.5 72.5t44 58t69 38.5t89.5 14q52 0 89 -10t60 -23l-24 -71q-17 9 -49.5 20.5t-78.5 11.5q-35 0 -59 -9.5t-39 -24t-22 -32.5t-7 -35q0 -47 32 -75
t102 -55q85 -33 128.5 -78.5t43.5 -119.5q0 -39 -14.5 -74t-44 -62t-73.5 -42.5t-104 -15.5q-49 0 -97 12.5t-75 30.5z" />
    <glyph glyph-name="T" unicode="T" horiz-adv-x="497" 
d="M204 600h-205v74h499v-74h-206v-600h-88v600z" />
    <glyph glyph-name="U" unicode="U" horiz-adv-x="647" 
d="M163 674v-399q0 -57 12 -97.5t33 -66.5t49.5 -38.5t62.5 -12.5q75 0 119.5 51.5t44.5 163.5v399h88v-393q0 -78 -19.5 -133t-53.5 -90.5t-80.5 -52t-101.5 -16.5q-52 0 -96 15.5t-76.5 50t-51 89.5t-18.5 133v397h88z" />
    <glyph glyph-name="V" unicode="V" horiz-adv-x="558" 
d="M224 0l-220 674h94l105 -332q22 -69 40 -130.5t32 -121.5h2q14 59 34 122t43 129l114 333h93l-241 -674h-96z" />
    <glyph glyph-name="W" unicode="W" horiz-adv-x="846" 
d="M186 0l-171 674h92l80 -341q15 -63 28 -123.5t22 -109.5h2q8 51 23 109.5t32 124.5l90 340h91l82 -342q14 -60 26.5 -118.5t20.5 -112.5h2q11 56 24.5 113t29.5 120l89 340h89l-191 -674h-91l-85 351q-16 65 -26.5 117t-17.5 103h-2q-9 -51 -21 -102.5t-31 -117.5
l-96 -351h-91z" />
    <glyph glyph-name="X" unicode="X" horiz-adv-x="571" 
d="M445 0l-86 149q-26 43 -44 73.5t-34 59.5h-2q-14 -29 -30.5 -59.5t-42.5 -74.5l-81 -148h-100l206 341l-198 333h101l89 -158q19 -33 33.5 -60t28.5 -54h3q14 30 28 56t33 58l92 158h100l-205 -328l210 -346h-101z" />
    <glyph glyph-name="Y" unicode="Y" horiz-adv-x="541" 
d="M226 0v286l-213 388h99l95 -186q20 -38 35.5 -71t31.5 -68h2q14 33 31 67t37 72l97 186h99l-226 -387v-287h-88z" />
    <glyph glyph-name="Z" unicode="Z" horiz-adv-x="553" 
d="M30 51l374 547v3h-342v73h455v-53l-372 -545v-3h377v-73h-492v51z" />
    <glyph glyph-name="bracketleft" unicode="[" horiz-adv-x="284" 
d="M82 -112v797h183v-55h-115v-687h115v-55h-183z" />
    <glyph glyph-name="backslash" unicode="\" horiz-adv-x="341" 
d="M274 -40l-272 725h68l272 -725h-68z" />
    <glyph glyph-name="bracketright" unicode="]" horiz-adv-x="284" 
d="M202 686v-798h-183v55h115v688h-115v55h183z" />
    <glyph glyph-name="asciicircum" unicode="^" horiz-adv-x="596" 
d="M466 189l-167 388h-2l-167 -388h-70l207 461h62l207 -461h-70z" />
    <glyph glyph-name="underscore" unicode="_" horiz-adv-x="500" 
d="M500 -75v-50h-500v50h500z" />
    <glyph glyph-name="grave" unicode="`" horiz-adv-x="300" 
d="M119 693l87 -143h-62l-122 143h97z" />
    <glyph glyph-name="a" unicode="a" horiz-adv-x="482" 
d="M341 0l-7 61h-3q-20 -29 -58 -50.5t-90 -21.5q-37 0 -64.5 12t-46 31.5t-28 44.5t-9.5 51q0 88 75 134.5t216 45.5v10q0 15 -3.5 34.5t-14.5 36.5t-33 29t-59 12q-34 0 -67 -9.5t-59 -26.5l-20 58q30 20 71.5 31.5t87.5 11.5q55 0 91 -17.5t56.5 -45.5t28.5 -63.5
t8 -71.5v-181q0 -32 1.5 -61.5t6.5 -54.5h-80zM328 247q-36 1 -72.5 -3t-66 -15.5t-48 -33.5t-18.5 -57q0 -43 24.5 -63.5t58.5 -20.5q48 0 77 25t40 56q5 15 5 28v84z" />
    <glyph glyph-name="b" unicode="b" horiz-adv-x="569" 
d="M69 0q2 25 3 59t1 66v585h87v-304h2q23 41 64.5 65t100.5 24q45 0 82.5 -18t64.5 -50.5t42 -78t15 -100.5q0 -65 -18.5 -113.5t-49.5 -81t-70 -48.5t-79 -16q-53 0 -94 21.5t-68 69.5h-3l-4 -80h-76zM160 194q0 -8 1 -16t3 -16q13 -46 48.5 -74.5t83.5 -28.5
q34 0 61.5 13.5t46.5 38t29 58.5t10 76q0 36 -9.5 69t-27.5 57.5t-45 39t-62 14.5q-45 0 -82.5 -28.5t-51.5 -79.5q-2 -8 -3.5 -16.5t-1.5 -19.5v-87z" />
    <glyph glyph-name="c" unicode="c" horiz-adv-x="448" 
d="M418 18q-17 -9 -53.5 -18.5t-85.5 -9.5q-55 0 -99.5 18t-76 50t-48.5 77.5t-17 101.5t18.5 103t52.5 81.5t82 53.5t107 19q39 0 71.5 -8t50.5 -17l-20 -68q-16 9 -41 16t-61 7q-42 0 -73.5 -14.5t-53.5 -39t-33 -58t-11 -71.5q0 -42 12.5 -75.5t35 -57t53.5 -36t67 -12.5
q38 0 63.5 8t44.5 16z" />
    <glyph glyph-name="d" unicode="d" horiz-adv-x="564" 
d="M491 710v-585q0 -32 1 -66t3 -59h-79l-4 84h-2q-20 -41 -62.5 -68t-102.5 -27q-44 0 -82 18t-65.5 50t-43.5 77.5t-16 100.5q0 60 17 108.5t47 82t69.5 51.5t83.5 18q56 0 92.5 -22.5t53.5 -51.5h2v289h88zM403 287q0 8 -1 18.5t-3 18.5q-10 42 -43.5 72t-83.5 30
q-34 0 -61 -14t-45.5 -39t-28.5 -59.5t-10 -74.5q0 -37 9 -69.5t27 -57t44.5 -38.5t62.5 -14q45 0 81 27.5t48 77.5q4 16 4 38v84z" />
    <glyph glyph-name="e" unicode="e" horiz-adv-x="501" 
d="M122 226q1 -45 14.5 -76.5t36 -52t52.5 -30t63 -9.5q48 0 78.5 7t55.5 18l15 -63q-23 -11 -63 -20.5t-98 -9.5q-56 0 -100 17.5t-75 49.5t-47 77t-16 100t15.5 102.5t45 82.5t71.5 55.5t95 20.5q59 0 98 -23t61.5 -57.5t31.5 -74.5t9 -73q0 -14 -1 -24t-2 -17h-340z
M380 289q0 21 -5 46t-18.5 46.5t-37.5 36t-61 14.5q-33 0 -57.5 -14t-41 -35t-25 -46t-11.5 -48h257z" />
    <glyph glyph-name="f" unicode="f" horiz-adv-x="292" 
d="M82 0v417h-68v67h68v23q0 51 12.5 95.5t43.5 73.5q25 24 56 34.5t62 10.5q23 0 42.5 -4.5t32.5 -9.5l-12 -68q-10 5 -23.5 8t-32.5 3q-28 0 -46.5 -11.5t-29 -31t-14.5 -44.5t-4 -53v-26h117v-67h-117v-417h-87z" />
    <glyph glyph-name="g" unicode="g" horiz-adv-x="559" 
d="M490 484q-2 -26 -3 -57t-1 -76v-281q0 -84 -17 -136.5t-52 -84.5q-35 -33 -82.5 -45.5t-93.5 -12.5q-44 0 -88 10t-73 30l22 67q24 -15 60.5 -26.5t81.5 -11.5q34 0 62.5 9t49.5 29.5t32.5 52.5t11.5 78v54h-2q-20 -34 -58.5 -57.5t-95.5 -23.5q-45 0 -83 18t-65 49.5
t-42.5 75t-15.5 93.5q0 61 18.5 109t49 81t69.5 50t81 17q31 0 56 -7.5t43.5 -19.5t31 -27t20.5 -30h2l4 73h77zM399 293q0 11 -1 21t-4 19q-12 38 -43.5 65.5t-79.5 27.5q-32 0 -58 -13t-45.5 -36.5t-30 -57.5t-10.5 -76q0 -36 9 -67.5t27 -55t44.5 -37.5t62.5 -14
q41 0 74.5 24t47.5 66q4 11 5.5 23.5t1.5 23.5v87z" />
    <glyph glyph-name="h" unicode="h" horiz-adv-x="555" 
d="M73 710h88v-302h2q22 39 63 62q20 11 42.5 18t47.5 7q24 0 53.5 -9t55 -32t43 -63t17.5 -103v-288h-88v278q0 29 -6 55.5t-19 46t-34.5 31t-52.5 11.5q-43 0 -74.5 -26t-43.5 -62q-4 -9 -5 -19t-1 -23v-292h-88v710z" />
    <glyph glyph-name="i" unicode="i" horiz-adv-x="234" 
d="M73 0v484h88v-484h-88zM117 675q25 0 39.5 -16t14.5 -39q1 -23 -14.5 -38.5t-41.5 -15.5q-23 0 -38 15.5t-15 38.5t15.5 39t39.5 16z" />
    <glyph glyph-name="j" unicode="j" horiz-adv-x="243" 
d="M-45 -140q30 2 55 11t41 26q9 10 15.5 23.5t10 34.5t5.5 50.5t2 73.5v405h88v-439q0 -71 -13 -118.5t-45 -80.5q-15 -15 -33.5 -25t-38.5 -17t-40 -10t-38 -3zM129 675q24 0 38.5 -16t14.5 -39q1 -22 -14 -38t-41 -16q-25 0 -39.5 16t-14.5 38q0 23 15.5 39t40.5 16z" />
    <glyph glyph-name="k" unicode="k" horiz-adv-x="469" 
d="M160 262h2q9 13 20.5 27.5t22.5 27.5l142 167h106l-187 -199l213 -285h-107l-167 232l-45 -50v-182h-87v710h87v-448z" />
    <glyph glyph-name="l" unicode="l" horiz-adv-x="236" 
d="M73 710h88v-710h-88v710z" />
    <glyph glyph-name="m" unicode="m" horiz-adv-x="834" 
d="M73 353q0 38 -1 69.5t-3 61.5h77l4 -78h3q10 17 24 33t32.5 28.5t42 20t53.5 7.5q50 0 85.5 -27t51.5 -70h2q11 20 25 36t29 27q22 17 47 25.5t60 8.5q24 0 52 -9t51.5 -33t39.5 -64.5t16 -103.5v-285h-86v274q0 70 -25.5 109.5t-79.5 39.5q-38 0 -65.5 -24t-38.5 -56
q-3 -9 -5 -20.5t-2 -23.5v-299h-86v290q0 58 -25 95.5t-76 37.5q-42 0 -70 -27.5t-39 -60.5q-7 -18 -7 -43v-292h-86v353z" />
    <glyph glyph-name="n" unicode="n" horiz-adv-x="555" 
d="M73 353q0 38 -1 69.5t-3 61.5h78l5 -80h2q9 17 24 33.5t35 29t45.5 20.5t55.5 8q25 0 55 -9t55.5 -32t43 -63t17.5 -102v-289h-88v279q0 29 -6 55t-19 45.5t-34.5 31t-52.5 11.5q-44 0 -75.5 -26.5t-42.5 -63.5q-6 -17 -6 -41v-291h-88v353z" />
    <glyph glyph-name="o" unicode="o" horiz-adv-x="549" 
d="M278 495q52 0 95 -18t73.5 -51t47.5 -79t17 -101q0 -67 -21 -115.5t-55.5 -80t-77.5 -46.5t-87 -15q-49 0 -91.5 17.5t-73.5 49.5t-49 78.5t-18 103.5q0 61 18.5 108.5t51 80.5t76.5 50.5t94 17.5zM276 429q-39 0 -67 -16.5t-46.5 -43t-27 -60.5t-8.5 -68q0 -40 11 -74
t30.5 -59t46.5 -39t59 -14q31 0 58 14t47 39t31 59.5t11 75.5q0 31 -8 64t-25.5 60t-45 44.5t-66.5 17.5z" />
    <glyph glyph-name="p" unicode="p" horiz-adv-x="569" 
d="M73 326q0 47 -1 85t-3 73h79l4 -83h2q27 45 69.5 69.5t102.5 24.5q44 0 81.5 -18t65 -50t43 -77.5t15.5 -100.5q0 -65 -18.5 -114t-49 -81.5t-70 -48.5t-82.5 -16q-48 0 -87.5 20t-61.5 56h-2v-263h-87v524zM160 197q0 -10 1 -19t3 -17q12 -46 48 -74.5t84 -28.5
q35 0 62.5 13.5t46 38.5t28.5 59t10 76q0 36 -9.5 69t-27.5 57.5t-45 39t-62 14.5q-45 0 -82.5 -29.5t-50.5 -79.5q-2 -8 -4 -17.5t-2 -18.5v-83z" />
    <glyph glyph-name="q" unicode="q" horiz-adv-x="563" 
d="M403 75h-2q-20 -36 -59.5 -61t-98.5 -25q-42 0 -79.5 17.5t-65.5 50t-44 77.5t-16 100q0 68 20 117t51.5 81t70.5 47.5t77 15.5q57 0 94 -24.5t55 -59.5h2l3 73h83q-2 -31 -2.5 -63t-0.5 -70v-549h-88v273zM403 288q0 9 -1 19t-3 18q-10 41 -43 70.5t-83 29.5
q-34 0 -61 -13.5t-46 -38.5t-29 -59t-10 -75q0 -36 8.5 -68.5t26.5 -57.5t45 -39.5t63 -14.5q43 0 77 25t49 71q3 9 5 20.5t2 21.5v91z" />
    <glyph glyph-name="r" unicode="r" horiz-adv-x="327" 
d="M73 333q0 43 -1 80t-3 71h77l3 -95h4q17 49 53 77.5t81 28.5q13 0 25 -3v-83q-14 3 -30 3q-47 0 -78 -31.5t-40 -81.5q-2 -9 -3 -19.5t-1 -21.5v-258h-87v333z" />
    <glyph glyph-name="s" unicode="s" horiz-adv-x="396" 
d="M61 90q20 -13 51.5 -24t64.5 -11q48 0 71 21t23 51q0 32 -20.5 51.5t-69.5 37.5q-66 23 -97 58t-31 79q0 29 11.5 55t33 45.5t52.5 30.5t70 11q37 0 68 -9t51 -21l-22 -64q-14 9 -39.5 18.5t-59.5 9.5q-39 0 -60 -19.5t-21 -46.5q0 -30 22 -47t70 -35q63 -24 95 -58
t32 -88q0 -64 -47 -104.5t-134 -40.5q-40 0 -75 9t-61 24z" />
    <glyph glyph-name="t" unicode="t" horiz-adv-x="331" 
d="M179 623v-139h126v-67h-126v-261q0 -45 14.5 -69.5t51.5 -24.5q17 0 30 2t21 4l4 -66q-13 -5 -32.5 -8.5t-45.5 -3.5q-63 0 -95 37q-19 20 -26.5 51.5t-7.5 74.5v264h-75v67h75v116z" />
    <glyph glyph-name="u" unicode="u" horiz-adv-x="551" 
d="M478 132q0 -38 1 -70.5t3 -61.5h-78l-5 79h-2q-9 -15 -23 -30.5t-33.5 -29t-45.5 -22t-58 -8.5q-29 0 -58.5 9t-53.5 33t-39.5 65t-15.5 105v283h88v-268q0 -69 24 -111.5t84 -42.5q22 0 40.5 7t33.5 18.5t25.5 25.5t16.5 29q8 21 8 45v297h88v-352z" />
    <glyph glyph-name="v" unicode="v" horiz-adv-x="481" 
d="M107 484l95 -272q12 -33 21.5 -63.5t17.5 -60.5h3q8 30 18.5 60.5t22.5 63.5l94 272h92l-190 -484h-84l-184 484h94z" />
    <glyph glyph-name="w" unicode="w" horiz-adv-x="736" 
d="M108 484l64 -246q11 -41 20 -78.5t16 -75.5h3q8 37 19.5 75.5t23.5 77.5l79 247h74l75 -242q14 -44 24.5 -82.5t18.5 -75.5h3q6 37 15.5 75.5t21.5 81.5l69 243h87l-156 -484h-80l-74 231q-13 41 -23.5 78.5t-19.5 80.5h-2q-9 -44 -20 -82.5t-24 -77.5l-78 -230h-80
l-146 484h90z" />
    <glyph glyph-name="x" unicode="x" horiz-adv-x="463" 
d="M114 484l69 -104q14 -20 25.5 -39.5t23.5 -39.5h3q12 22 24 41t24 39l68 103h95l-165 -234l170 -250h-100l-71 109q-14 21 -26.5 41.5t-25.5 42.5h-2q-12 -22 -24.5 -42t-26.5 -42l-70 -109h-97l172 247l-164 237h98z" />
    <glyph glyph-name="y" unicode="y" horiz-adv-x="471" 
d="M105 484l106 -286q8 -24 16.5 -50.5t14.5 -48.5h2q7 22 14.5 48.5t16.5 52.5l96 284h93l-132 -345q-24 -62 -44.5 -110t-40 -84.5t-39.5 -63t-42 -45.5q-32 -29 -61.5 -41.5t-46.5 -15.5l-22 74q17 5 37 15.5t40 27.5q18 14 38.5 39t35.5 59q7 16 7 21q0 6 -6 23
l-179 446h96z" />
    <glyph glyph-name="z" unicode="z" horiz-adv-x="428" 
d="M18 51l219 285q16 20 31 37.5t32 37.5v2h-262v71h369l-1 -55l-216 -281q-15 -20 -30 -38.5t-32 -37.5v-2h283v-70h-393v51z" />
    <glyph glyph-name="braceleft" unicode="{" horiz-adv-x="284" 
d="M28 313q27 0 43 6.5t24.5 17t11 24t2.5 26.5q0 21 -2.5 42t-5.5 42t-5.5 41.5t-2.5 41.5q0 69 40.5 100t104.5 31h21v-55h-18q-45 0 -62 -22.5t-17 -63.5q0 -17 2 -35t5 -36q3 -19 5 -37.5t2 -38.5q1 -48 -18.5 -73.5t-53.5 -34.5v-2q34 -8 53.5 -34.5t18.5 -74.5
q0 -20 -2 -39t-5 -37q-3 -19 -5 -36.5t-2 -35.5q0 -42 18.5 -64.5t60.5 -22.5h18v-55h-21q-31 0 -57.5 7t-46 23.5t-30.5 42.5t-11 64q0 20 2.5 41t5.5 41t5.5 40.5t2.5 40.5q0 12 -2.5 25t-11 24t-24.5 18t-43 7v51z" />
    <glyph glyph-name="bar" unicode="|" horiz-adv-x="239" 
d="M153 750v-1000h-67v1000h67z" />
    <glyph glyph-name="braceright" unicode="}" horiz-adv-x="284" 
d="M256 262q-27 0 -43 -7t-24.5 -18t-11 -24t-2.5 -25q0 -20 2.5 -40.5t5.5 -40.5t5.5 -41t2.5 -41q0 -38 -11 -64t-30.5 -42.5t-46 -23.5t-57.5 -7h-21v55h17q42 1 61 23t19 64q0 18 -2.5 35.5t-4.5 36.5q-3 18 -5.5 37t-2.5 39q0 48 19.5 74.5t52.5 34.5v2
q-33 9 -52.5 34.5t-19.5 73.5q0 20 2.5 38.5t5.5 37.5q2 18 4.5 36t2.5 35q0 41 -17.5 63t-61.5 23h-18v55h20q64 0 105 -31t41 -100q0 -21 -2.5 -41.5t-5.5 -41.5t-5.5 -42t-2.5 -42q0 -13 2.5 -26.5t11 -24t24.5 -17t43 -6.5v-51z" />
    <glyph glyph-name="asciitilde" unicode="~" horiz-adv-x="596" 
d="M49 210q-3 75 32 113t87 38q31 0 61 -10.5t80 -34.5q38 -18 67.5 -30t57.5 -12q52 0 54 84h60q2 -42 -7 -71t-25.5 -46.5t-38 -25.5t-44.5 -8q-30 0 -61.5 10t-83.5 34q-35 17 -64 30.5t-56 13.5t-42.5 -20t-17.5 -65h-59z" />
    <glyph glyph-name="exclamdown" unicode="&#xa1;" horiz-adv-x="230" 
d="M67 -198l14 477h68l15 -477h-97zM116 488q26 0 42 -17.5t16 -44.5q0 -26 -16 -44t-43 -18q-26 0 -42.5 18t-16.5 44q0 27 17 44.5t43 17.5z" />
    <glyph glyph-name="cent" unicode="&#xa2;" 
d="M268 -14v101q-48 6 -83 23.5t-62 46.5q-26 29 -41 71.5t-15 97.5q0 48 14 90t40.5 74.5t63.5 53.5t83 29v100h62v-98q34 0 63 -8t46 -17l-20 -67q-15 9 -40.5 17t-63.5 8q-37 0 -66.5 -14t-50.5 -38t-32 -56.5t-11 -69.5q0 -42 12 -74.5t33 -55t49.5 -34.5t61.5 -12
q42 0 69 8.5t45 16.5l16 -63q-15 -8 -44.5 -17.5t-66.5 -11.5v-101h-62z" />
    <glyph glyph-name="sterling" unicode="&#xa3;" 
d="M56 0v50q51 26 82.5 72t31.5 103q0 18 -1 34t-4 36h-103v63h93q-4 23 -7.5 51t-3.5 57q0 44 14.5 80t40 61.5t60.5 39.5t77 14q39 0 66 -7.5t43 -17.5l-20 -66q-14 8 -35.5 14t-53.5 6q-59 0 -84.5 -36t-25.5 -89q0 -32 3.5 -57.5t8.5 -49.5h144v-63h-136q2 -29 2.5 -57
t-6.5 -55q-16 -63 -69 -108v-2h298v-73h-415z" />
    <glyph glyph-name="currency" unicode="&#xa4;" 
d="M256 534q35 0 65 -11t51 -29l71 75l44 -46l-78 -71q14 -20 24.5 -50.5t10.5 -66.5q0 -42 -10.5 -73t-24.5 -50l75 -74l-45 -44l-68 77q-23 -22 -55 -32.5t-62 -10.5q-31 0 -62.5 10.5t-51.5 29.5l-67 -74l-43 44l72 71q-15 20 -26 51.5t-11 68.5q0 39 11.5 70.5
t27.5 52.5l-75 71l44 46l69 -76q21 19 51 30t63 11zM255 471q-28 0 -50 -11t-37.5 -30t-23.5 -45t-8 -55q0 -36 11.5 -62.5t28.5 -43.5t38 -25t40 -8q21 0 42 8t38.5 25t28 44t10.5 66q0 26 -7.5 50.5t-22.5 44t-37 31t-51 11.5z" />
    <glyph glyph-name="yen" unicode="&#xa5;" 
d="M209 0v177h-155v50h155v70h-155v50h130l-168 303h94l104 -206q23 -49 40 -90h3q8 20 17.5 43t22.5 49l108 204h92l-179 -303h130v-50h-156v-70h156v-50h-156v-177h-83z" />
    <glyph glyph-name="brokenbar" unicode="&#xa6;" horiz-adv-x="239" 
d="M153 174v-350h-67v350h67zM153 674v-350h-67v350h67z" />
    <glyph glyph-name="section" unicode="&#xa7;" horiz-adv-x="519" 
d="M130 351q0 -27 23 -50t83 -45q38 -14 67.5 -25.5t46.5 -22.5q19 14 28.5 34t9.5 43q0 29 -20 52.5t-69 40.5q-30 11 -64.5 24t-58.5 27q-46 -33 -46 -78zM397 593q-20 12 -49.5 22t-70.5 10q-45 0 -74.5 -20t-29.5 -54q0 -20 9 -33.5t25.5 -24.5t39.5 -20t51 -18
q34 -11 64 -24.5t52 -32t34.5 -43t12.5 -58.5q0 -39 -17.5 -68.5t-47.5 -52.5q13 -11 25.5 -34t12.5 -54q0 -39 -16.5 -67.5t-43.5 -47t-61 -27t-69 -8.5q-46 0 -87 10.5t-70 31.5l24 57q18 -13 52.5 -27t79.5 -14q48 0 80 21t32 61q0 18 -6 32t-20 26t-37.5 23t-58.5 23
q-39 13 -71 27.5t-55 32.5t-35.5 42t-12.5 56q0 29 16.5 60t56.5 57q-15 12 -25.5 35t-11.5 49q0 33 14.5 59.5t39.5 44.5t58.5 28t72.5 10q42 0 77 -9.5t61 -23.5z" />
    <glyph glyph-name="dieresis" unicode="&#xa8;" horiz-adv-x="300" 
d="M58 570q-23 0 -37 15.5t-14 35.5q0 21 15 36t36 15t35 -14.5t14 -36.5q0 -20 -13.5 -35.5t-35.5 -15.5zM243 570q-23 0 -36.5 15.5t-13.5 35.5q0 21 14.5 36t35.5 15t35 -14.5t14 -36.5q0 -20 -13.5 -35.5t-35.5 -15.5z" />
    <glyph glyph-name="copyright" unicode="&#xa9;" horiz-adv-x="677" 
d="M340 648q63 0 118 -24t95.5 -66t64 -98t23.5 -120q0 -65 -23.5 -121.5t-64 -98.5t-95.5 -66t-118 -24q-64 0 -119.5 24t-96.5 66t-64.5 98.5t-23.5 121.5q0 64 23.5 120t64.5 98t96.5 66t119.5 24zM340 607q-54 0 -100.5 -21t-80.5 -57t-53.5 -85.5t-19.5 -106.5
q0 -56 19.5 -104.5t53.5 -84.5t80.5 -56.5t100.5 -20.5q53 0 99 20.5t79.5 57t53 85.5t19.5 106q0 56 -19.5 104.5t-53 84.5t-79.5 57t-99 21zM462 454q-10 5 -36 14t-61 9q-71 0 -105.5 -40t-34.5 -100q0 -29 9 -55t27 -45t44 -30t61 -11q30 0 57 7.5t44 18.5l12 -38
q-26 -17 -58.5 -24t-64.5 -7q-44 0 -78 14t-57 38.5t-35.5 57.5t-12.5 71q0 43 15.5 77.5t42 58.5t61 37t72.5 13q39 0 69.5 -9t40.5 -18z" />
    <glyph glyph-name="ordfeminine" unicode="&#xaa;" horiz-adv-x="346" 
d="M245 266l-6 42h-2q-14 -18 -40 -32.5t-61 -14.5q-50 0 -76.5 28t-26.5 67q0 54 52 85t149 29v10q0 6 -2.5 16.5t-10.5 20.5t-22.5 17.5t-38.5 7.5t-46.5 -6.5t-39.5 -20.5l-16 43q22 16 52 24.5t62 8.5q37 0 62 -12t39 -31.5t20 -44.5t6 -52v-107q0 -42 6 -78h-60z
M235 427q-24 0 -48 -2t-43.5 -9.5t-32 -21t-12.5 -34.5q0 -25 17.5 -38t40.5 -13t40.5 11t27.5 25q10 17 10 27v55z" />
    <glyph glyph-name="guillemotleft" unicode="&#xab;" horiz-adv-x="419" 
d="M98 252l134 -184h-71l-132 184l132 184h71zM262 252l134 -184h-71l-132 184l132 184h71z" />
    <glyph glyph-name="logicalnot" unicode="&#xac;" horiz-adv-x="596" 
d="M556 399v-278h-64v218h-452v60h516z" />
    <glyph glyph-name="uni00AD" unicode="&#xad;" horiz-adv-x="307" 
d="M277 303v-65h-247v65h247z" />
    <glyph glyph-name="registered" unicode="&#xae;" horiz-adv-x="419" 
d="M184 435h-38v164q25 5 63 5q23 0 35.5 -3.5t21.5 -8.5q7 -5 11.5 -14.5t4.5 -21.5q0 -14 -9.5 -23.5t-24.5 -14.5v-2q23 -9 30 -40q4 -19 6.5 -27.5t5.5 -13.5h-41q-4 5 -6.5 15.5t-6.5 24.5q-4 26 -34 26h-18v-66zM185 528h18q16 0 27 5.5t11 18.5q0 25 -35 25
q-13 0 -21 -2v-47zM210 685q36 0 66.5 -13t53 -35t35.5 -52t13 -64q0 -35 -13 -65t-35.5 -52.5t-53 -35.5t-66.5 -13q-35 0 -66 13t-54 35.5t-36 52.5t-13 65q0 34 13 64t36 52t54 35t66 13zM210 652q-27 0 -50.5 -10.5t-40.5 -28t-26.5 -41.5t-9.5 -51t9.5 -51t26.5 -42
t40.5 -28t51.5 -10q27 0 50 10t39.5 28t26 41.5t9.5 50.5t-9.5 51t-26 42t-40 28.5t-50.5 10.5z" />
    <glyph glyph-name="macron" unicode="&#xaf;" horiz-adv-x="300" 
d="M263 643v-57h-225v57h225z" />
    <glyph glyph-name="degree" unicode="&#xb0;" horiz-adv-x="318" 
d="M162 685q31 0 55.5 -11t41.5 -29t26 -41.5t9 -48.5q0 -30 -11 -55t-30 -42.5t-43 -27t-50 -9.5q-29 0 -53.5 10.5t-41.5 28t-26.5 41t-9.5 49.5q0 29 10 53.5t28 42.5t42.5 28.5t52.5 10.5zM161 638q-20 0 -34.5 -7.5t-24 -20t-14.5 -28.5t-5 -32q0 -35 22.5 -58.5
t55.5 -23.5q34 0 56.5 24.5t22.5 61.5q0 14 -4.5 29t-14 27t-24.5 20t-36 8z" />
    <glyph glyph-name="plusminus" unicode="&#xb1;" horiz-adv-x="596" 
d="M330 572v-195h226v-60h-226v-200h-64v200h-226v60h226v195h64zM556 60v-60h-516v60h516z" />
    <glyph glyph-name="twosuperior" unicode="&#xb2;" horiz-adv-x="311" 
d="M12 480l63 59q62 56 94 95.5t32 77.5q0 29 -18.5 49.5t-57.5 20.5q-26 0 -48 -10.5t-36 -20.5l-21 45q20 17 52 29.5t70 12.5q35 0 60.5 -10t41.5 -26t23.5 -36.5t7.5 -40.5q0 -28 -10 -53t-28 -48.5t-42.5 -47t-52.5 -48.5l-31 -28v-2h171v-55h-270v37z" />
    <glyph glyph-name="threesuperior" unicode="&#xb3;" horiz-adv-x="305" 
d="M28 807q17 11 47.5 21t67.5 10q32 0 55 -8t38 -21t22 -30t7 -35q0 -30 -20.5 -54t-56.5 -36v-2q42 -6 67.5 -32.5t25.5 -64.5q0 -23 -10.5 -44.5t-30.5 -37.5t-49.5 -25.5t-67.5 -9.5q-36 0 -66.5 8.5t-47.5 19.5l18 50q12 -8 38 -17t55 -9q23 0 39.5 6t27 16t15.5 21.5
t5 23.5q0 19 -9 32t-24 21.5t-34 12.5t-39 4h-27v46h28q14 0 29.5 3.5t29 11t23 19.5t9.5 30t-14.5 33.5t-48.5 15.5q-27 0 -50 -9t-35 -17z" />
    <glyph glyph-name="acute" unicode="&#xb4;" horiz-adv-x="300" 
d="M286 693l-122 -143h-63l88 143h97z" />
    <glyph glyph-name="mu" unicode="&#xb5;" horiz-adv-x="553" 
d="M400 75q-8 -14 -20.5 -29t-29.5 -27t-39.5 -20t-49.5 -8q-33 0 -61.5 12.5t-44.5 40.5v-60q0 -20 0.5 -45t1.5 -50.5t3 -48.5t6 -38h-79q-8 23 -11 71.5t-3 106.5v504h87v-286q0 -28 6 -53t19.5 -43.5t34 -29.5t49.5 -11q22 0 40.5 7t33.5 18.5t25.5 26t16.5 29.5
q8 21 8 45v297h87v-351q0 -40 10 -57t36 -19l-7 -64q-8 -2 -13.5 -3t-16.5 -1q-32 0 -56 19.5t-30 66.5h-3z" />
    <glyph glyph-name="paragraph" unicode="&#xb6;" horiz-adv-x="512" 
d="M230 -49v313h-7q-30 0 -63 12t-61 36t-46.5 60t-18.5 84q0 39 12 78t43 70.5t84.5 51.5t135.5 20q79 0 117 -9v-716h-62v664h-71v-664h-63z" />
    <glyph glyph-name="periodcentered" unicode="&#xb7;" horiz-adv-x="207" 
d="M103 200q-26 0 -43 18t-16 45q0 27 17 45t43 18t42 -17.5t17 -45.5q0 -27 -16.5 -45t-43.5 -18z" />
    <glyph glyph-name="cedilla" unicode="&#xb8;" horiz-adv-x="300" 
d="M190 2l-33 -52q28 -4 49 -22t21 -47q0 -22 -8.5 -37.5t-23 -25t-33 -14t-39.5 -4.5q-19 0 -37 4.5t-31 12.5l15 43q12 -8 26 -11.5t28 -3.5q17 0 30 7t13 25q-1 20 -22 29.5t-56 12.5l47 83h54z" />
    <glyph glyph-name="onesuperior" unicode="&#xb9;" horiz-adv-x="244" 
d="M107 443v329h-2l-72 -35l-11 52l94 44h61v-390h-70z" />
    <glyph glyph-name="ordmasculine" unicode="&#xba;" horiz-adv-x="355" 
d="M179 591q36 0 65.5 -12.5t50 -34t31.5 -51.5t11 -65q0 -43 -14.5 -74.5t-37 -52t-51 -30.5t-57.5 -10q-33 0 -62 11.5t-50.5 32.5t-34 51t-12.5 67q0 39 13 70t35 53t51.5 33.5t61.5 11.5zM177 541q-24 0 -41.5 -10.5t-28.5 -27t-16.5 -37.5t-5.5 -41q0 -50 27.5 -82
t65.5 -32q40 0 66 31.5t26 83.5q0 19 -5.5 39t-16.5 37t-28.5 28t-42.5 11z" />
    <glyph glyph-name="guillemotright" unicode="&#xbb;" horiz-adv-x="419" 
d="M23 436h71l133 -184l-133 -184h-70l133 184zM186 436h71l133 -184l-133 -184h-70l133 184z" />
    <glyph glyph-name="onequarter" unicode="&#xbc;" horiz-adv-x="759" 
d="M128 266v329h-2l-72 -35l-11 52l94 44h61v-390h-70zM138 -11l379 672h57l-380 -672h-56zM596 1v103h-189v40l177 249h79v-240h56v-49h-56v-103h-67zM596 271q0 17 1 32.5t2 30.5h-2q-9 -17 -17 -31t-17 -28l-87 -120l1 -2h119v118z" />
    <glyph glyph-name="onehalf" unicode="&#xbd;" horiz-adv-x="759" 
d="M114 266v329h-2l-72 -35l-11 52l94 44h61v-390h-70zM119 -11l379 672h57l-380 -672h-56zM440 38l63 59q62 56 94 95.5t32 77.5q0 29 -18.5 49.5t-57.5 20.5q-26 0 -48 -10.5t-36 -20.5l-21 45q20 17 52 29.5t70 12.5q35 0 60.5 -10t41.5 -26t23.5 -36.5t7.5 -40.5
q0 -28 -10 -53t-28 -48.5t-42.5 -47t-52.5 -48.5l-31 -28v-2h171v-55h-270v37z" />
    <glyph glyph-name="threequarters" unicode="&#xbe;" horiz-adv-x="759" 
d="M49 630q17 11 47.5 21t67.5 10q32 0 55 -8t38 -21t22 -30t7 -35q0 -30 -20.5 -54t-56.5 -36v-2q42 -6 67.5 -32.5t25.5 -64.5q0 -23 -10.5 -44.5t-30.5 -37.5t-49.5 -25.5t-67.5 -9.5q-36 0 -66.5 8.5t-47.5 19.5l18 50q12 -8 38 -17t55 -9q23 0 39.5 6t27 16t15.5 21.5
t5 23.5q0 19 -9 32t-24 21.5t-34 12.5t-39 4h-27v46h28q14 0 29.5 3.5t29 11t23 19.5t9.5 30t-14.5 33.5t-48.5 15.5q-27 0 -50 -9t-35 -17zM175 -11l379 672h57l-380 -672h-56zM607 1v103h-189v40l177 249h79v-240h56v-49h-56v-103h-67zM607 271q0 17 1 32.5t2 30.5h-2
q-9 -17 -17 -31t-17 -28l-87 -120l1 -2h119v118z" />
    <glyph glyph-name="questiondown" unicode="&#xbf;" horiz-adv-x="406" 
d="M237 489q27 0 43 -17.5t16 -44.5q0 -26 -16 -44.5t-43 -18.5t-43 18.5t-16 44.5q0 27 16.5 44.5t42.5 17.5zM275 285l3 -26q5 -41 -10 -83.5t-53 -87.5q-34 -41 -51.5 -71.5t-17.5 -64.5q0 -38 23.5 -61.5t71.5 -23.5q26 0 53.5 8t47.5 23l24 -64q-26 -17 -65 -28.5
t-79 -11.5q-43 0 -74.5 12.5t-52 32.5t-30.5 46.5t-10 55.5q0 51 25 90.5t62 81.5q32 40 45 74t11 72l-1 26h78z" />
    <glyph glyph-name="Agrave" unicode="&#xc0;" horiz-adv-x="612" 
d="M185 212l-70 -212h-90l229 674h105l230 -674h-93l-72 212h-239zM406 280l-66 194q-11 33 -19 63.5t-16 59.5h-2q-8 -30 -16 -60.5t-18 -61.5l-66 -195h203zM266 827l93 -116h-72l-127 116h106z" />
    <glyph glyph-name="Aacute" unicode="&#xc1;" horiz-adv-x="612" 
d="M185 212l-70 -212h-90l229 674h105l230 -674h-93l-72 212h-239zM406 280l-66 194q-11 33 -19 63.5t-16 59.5h-2q-8 -30 -16 -60.5t-18 -61.5l-66 -195h203zM454 827l-127 -117h-72l93 117h106z" />
    <glyph glyph-name="Acircumflex" unicode="&#xc2;" horiz-adv-x="612" 
d="M185 212l-70 -212h-90l229 674h105l230 -674h-93l-72 212h-239zM406 280l-66 194q-11 33 -19 63.5t-16 59.5h-2q-8 -30 -16 -60.5t-18 -61.5l-66 -195h203zM344 824l104 -114h-73l-64 69h-2l-64 -69h-71l103 114h67z" />
    <glyph glyph-name="Atilde" unicode="&#xc3;" horiz-adv-x="612" 
d="M185 212l-70 -212h-90l229 674h105l230 -674h-93l-72 212h-239zM406 280l-66 194q-11 33 -19 63.5t-16 59.5h-2q-8 -30 -16 -60.5t-18 -61.5l-66 -195h203zM185 715q-2 46 16.5 74t51.5 28q17 0 30 -6t29 -14q12 -7 24 -12.5t24 -5.5q11 0 18 7.5t9 31.5h46
q2 -97 -67 -97q-16 0 -30 5.5t-31 13.5q-14 8 -25 13.5t-22 5.5q-12 0 -18 -12t-8 -32h-47z" />
    <glyph glyph-name="Adieresis" unicode="&#xc4;" horiz-adv-x="612" 
d="M185 212l-70 -212h-90l229 674h105l230 -674h-93l-72 212h-239zM406 280l-66 194q-11 33 -19 63.5t-16 59.5h-2q-8 -30 -16 -60.5t-18 -61.5l-66 -195h203zM217 720q-23 0 -36 15t-13 36q0 20 14 35t35 15t34.5 -14.5t13.5 -35.5t-13 -36t-35 -15zM402 720
q-22 0 -35.5 15t-13.5 36q0 20 14 35t36 15q21 0 34.5 -14.5t13.5 -35.5t-13 -36t-36 -15z" />
    <glyph glyph-name="Aring" unicode="&#xc5;" horiz-adv-x="612" 
d="M185 212l-70 -212h-90l229 674h105l230 -674h-93l-72 212h-239zM406 280l-66 194q-11 33 -19 63.5t-16 59.5h-2q-8 -30 -16 -60.5t-18 -61.5l-66 -195h203zM308 879q46 0 72.5 -26.5t26.5 -64.5t-27.5 -63t-71.5 -25q-46 0 -73.5 25.5t-27.5 62.5q0 38 27 64.5t74 26.5z
M306 842q-23 0 -35 -16t-12 -38q0 -20 13 -35.5t34 -15.5q23 0 36 15t13 37t-13 37.5t-36 15.5z" />
    <glyph glyph-name="AE" unicode="&#xc6;" horiz-adv-x="788" 
d="M-1 0l308 674h422v-73h-287l26 -215h251v-72h-240l30 -241h247v-73h-322l-30 238h-207l-108 -238h-90zM394 308l-22 194q-3 24 -6.5 53.5t-5.5 55.5h-4q-9 -24 -20.5 -51.5t-22.5 -54.5l-87 -197h168z" />
    <glyph glyph-name="Ccedilla" unicode="&#xc7;" horiz-adv-x="580" 
d="M547 22q-24 -12 -70 -22t-108 -10q-71 0 -132 22t-105.5 65.5t-70 107t-25.5 146.5q0 79 25.5 144.5t72 112t111.5 72t143 25.5q63 0 103 -10.5t57 -19.5l-21 -71q-25 12 -59.5 20t-76.5 8q-59 0 -107.5 -18.5t-83 -54t-53.5 -87.5t-19 -118q0 -62 17.5 -112t50.5 -85.5
t81 -54.5t110 -19q40 0 78 7.5t64 20.5zM378 3l-32 -53q29 -5 50 -24.5t21 -50.5q0 -22 -9 -37.5t-23 -25t-33 -14t-38 -4.5q-20 0 -39 4.5t-32 12.5l14 45q24 -13 56 -13q17 0 29.5 7t12.5 23q0 20 -21.5 29.5t-56.5 13.5l47 87h54z" />
    <glyph glyph-name="Egrave" unicode="&#xc8;" horiz-adv-x="492" 
d="M425 316h-262v-243h292v-73h-379v674h364v-73h-277v-213h262v-72zM226 827l93 -116h-72l-127 116h106z" />
    <glyph glyph-name="Eacute" unicode="&#xc9;" horiz-adv-x="492" 
d="M425 316h-262v-243h292v-73h-379v674h364v-73h-277v-213h262v-72zM409 827l-127 -117h-72l93 117h106z" />
    <glyph glyph-name="Ecircumflex" unicode="&#xca;" horiz-adv-x="492" 
d="M425 316h-262v-243h292v-73h-379v674h364v-73h-277v-213h262v-72zM291 824l104 -114h-73l-64 69h-2l-64 -69h-71l103 114h67z" />
    <glyph glyph-name="Edieresis" unicode="&#xcb;" horiz-adv-x="492" 
d="M425 316h-262v-243h292v-73h-379v674h364v-73h-277v-213h262v-72zM163 721q-23 0 -36 15t-13 36q0 20 14 35t35 15t34.5 -14.5t13.5 -35.5t-13 -36t-35 -15zM348 721q-22 0 -35.5 15t-13.5 36q0 20 14 35t36 15q21 0 34.5 -14.5t13.5 -35.5t-13 -36t-36 -15z" />
    <glyph glyph-name="Igrave" unicode="&#xcc;" horiz-adv-x="239" 
d="M163 674v-674h-87v674h87zM82 827l93 -116h-72l-127 116h106z" />
    <glyph glyph-name="Iacute" unicode="&#xcd;" horiz-adv-x="239" 
d="M163 674v-674h-87v674h87zM267 827l-127 -117h-72l93 117h106z" />
    <glyph glyph-name="Icircumflex" unicode="&#xce;" horiz-adv-x="239" 
d="M163 674v-674h-87v674h87zM154 824l104 -114h-73l-64 69h-2l-64 -69h-71l103 114h67z" />
    <glyph glyph-name="Idieresis" unicode="&#xcf;" horiz-adv-x="239" 
d="M163 674v-674h-87v674h87zM29 721q-23 0 -36 15t-13 36q0 20 14 35t35 15t34.5 -14.5t13.5 -35.5t-13 -36t-35 -15zM214 721q-22 0 -35.5 15t-13.5 36q0 20 14 35t36 15q21 0 34.5 -14.5t13.5 -35.5t-13 -36t-36 -15z" />
    <glyph glyph-name="Eth" unicode="&#xd0;" horiz-adv-x="671" 
d="M-2 377h83v290q40 7 86.5 11t98.5 4q94 0 161 -21t112 -63t70 -101.5t25 -143.5t-24.5 -149.5t-72.5 -113.5t-124 -72.5t-174 -24.5q-48 0 -86.5 1.5t-71.5 5.5v307h-83v70zM348 307h-180v-240q17 -2 39.5 -3t47.5 -1q142 0 215 74.5t73 214.5q1 121 -67 190.5t-206 69.5
q-34 0 -59.5 -2.5t-42.5 -6.5v-226h180v-70z" />
    <glyph glyph-name="Ntilde" unicode="&#xd1;" horiz-adv-x="658" 
d="M76 0v674h95l216 -341q38 -60 67.5 -113.5t53.5 -105.5l2 1q-6 68 -8 133t-2 144v282h82v-674h-88l-214 342q-35 57 -67.5 113.5t-58.5 111.5l-3 -1q4 -64 5.5 -129t1.5 -149v-288h-82zM210 715q-2 46 16.5 74t51.5 28q17 0 30 -6t29 -14q12 -7 24 -12.5t24 -5.5
q11 0 18 7.5t9 31.5h46q2 -97 -67 -97q-16 0 -30 5.5t-31 13.5q-14 8 -25 13.5t-22 5.5q-12 0 -18 -12t-8 -32h-47z" />
    <glyph glyph-name="Ograve" unicode="&#xd2;" horiz-adv-x="689" 
d="M349 685q69 0 125 -25t95.5 -70.5t61 -108t21.5 -137.5q0 -87 -24.5 -153.5t-67.5 -111t-100 -67.5t-121 -23q-67 0 -122.5 24.5t-95.5 69.5t-62.5 108t-22.5 140q0 80 23.5 145.5t65.5 112t99 71.5t125 25zM345 614q-54 0 -94.5 -23t-67.5 -62t-40.5 -90t-13.5 -106
q0 -54 14.5 -103.5t42 -87t67.5 -60t91 -22.5q52 0 92 22t67.5 60.5t42 89.5t14.5 108q0 50 -13 99t-40 88t-67.5 63t-94.5 24zM305 830l93 -116h-72l-127 116h106z" />
    <glyph glyph-name="Oacute" unicode="&#xd3;" horiz-adv-x="689" 
d="M349 685q69 0 125 -25t95.5 -70.5t61 -108t21.5 -137.5q0 -87 -24.5 -153.5t-67.5 -111t-100 -67.5t-121 -23q-67 0 -122.5 24.5t-95.5 69.5t-62.5 108t-22.5 140q0 80 23.5 145.5t65.5 112t99 71.5t125 25zM345 614q-54 0 -94.5 -23t-67.5 -62t-40.5 -90t-13.5 -106
q0 -54 14.5 -103.5t42 -87t67.5 -60t91 -22.5q52 0 92 22t67.5 60.5t42 89.5t14.5 108q0 50 -13 99t-40 88t-67.5 63t-94.5 24zM490 830l-127 -117h-72l93 117h106z" />
    <glyph glyph-name="Ocircumflex" unicode="&#xd4;" horiz-adv-x="689" 
d="M349 685q69 0 125 -25t95.5 -70.5t61 -108t21.5 -137.5q0 -87 -24.5 -153.5t-67.5 -111t-100 -67.5t-121 -23q-67 0 -122.5 24.5t-95.5 69.5t-62.5 108t-22.5 140q0 80 23.5 145.5t65.5 112t99 71.5t125 25zM345 614q-54 0 -94.5 -23t-67.5 -62t-40.5 -90t-13.5 -106
q0 -54 14.5 -103.5t42 -87t67.5 -60t91 -22.5q52 0 92 22t67.5 60.5t42 89.5t14.5 108q0 50 -13 99t-40 88t-67.5 63t-94.5 24zM377 827l104 -114h-73l-64 69h-2l-64 -69h-71l103 114h67z" />
    <glyph glyph-name="Otilde" unicode="&#xd5;" horiz-adv-x="689" 
d="M349 685q69 0 125 -25t95.5 -70.5t61 -108t21.5 -137.5q0 -87 -24.5 -153.5t-67.5 -111t-100 -67.5t-121 -23q-67 0 -122.5 24.5t-95.5 69.5t-62.5 108t-22.5 140q0 80 23.5 145.5t65.5 112t99 71.5t125 25zM345 614q-54 0 -94.5 -23t-67.5 -62t-40.5 -90t-13.5 -106
q0 -54 14.5 -103.5t42 -87t67.5 -60t91 -22.5q52 0 92 22t67.5 60.5t42 89.5t14.5 108q0 50 -13 99t-40 88t-67.5 63t-94.5 24zM220 717q-2 46 16.5 74t51.5 28q17 0 30 -6t29 -14q12 -7 24 -12.5t24 -5.5q11 0 18 7.5t9 31.5h46q2 -97 -67 -97q-16 0 -30 5.5t-31 13.5
q-14 8 -25 13.5t-22 5.5q-12 0 -18 -12t-8 -32h-47z" />
    <glyph glyph-name="Odieresis" unicode="&#xd6;" horiz-adv-x="689" 
d="M349 685q69 0 125 -25t95.5 -70.5t61 -108t21.5 -137.5q0 -87 -24.5 -153.5t-67.5 -111t-100 -67.5t-121 -23q-67 0 -122.5 24.5t-95.5 69.5t-62.5 108t-22.5 140q0 80 23.5 145.5t65.5 112t99 71.5t125 25zM345 614q-54 0 -94.5 -23t-67.5 -62t-40.5 -90t-13.5 -106
q0 -54 14.5 -103.5t42 -87t67.5 -60t91 -22.5q52 0 92 22t67.5 60.5t42 89.5t14.5 108q0 50 -13 99t-40 88t-67.5 63t-94.5 24zM252 721q-23 0 -36 15t-13 36q0 20 14 35t35 15t34.5 -14.5t13.5 -35.5t-13 -36t-35 -15zM437 721q-22 0 -35.5 15t-13.5 36q0 20 14 35t36 15
q21 0 34.5 -14.5t13.5 -35.5t-13 -36t-36 -15z" />
    <glyph glyph-name="multiply" unicode="&#xd7;" horiz-adv-x="596" 
d="M84 526l214 -219l214 219l44 -44l-215 -219l215 -219l-44 -44l-214 219l-214 -219l-44 44l214 219l-214 219z" />
    <glyph glyph-name="Oslash" unicode="&#xd8;" horiz-adv-x="689" 
d="M63 -4l62 88q-42 45 -65.5 109.5t-23.5 139.5q0 80 24 145t65.5 111t98.5 71t123 25q95 0 168 -53l59 81l53 -36l-62 -86q42 -46 64.5 -109.5t22.5 -138.5q0 -88 -25 -154.5t-67.5 -110.5t-98 -66.5t-115.5 -22.5q-97 0 -171 54l-63 -86zM472 568q-26 22 -57 34.5
t-69 12.5q-55 0 -96.5 -23.5t-69 -62t-41.5 -88.5t-14 -103q0 -57 13.5 -99.5t36.5 -81.5l1 1zM218 107q25 -23 55 -35.5t71 -12.5q53 0 94 22.5t68.5 61t42 89.5t14.5 108q0 43 -10.5 87.5t-36.5 87.5h-3z" />
    <glyph glyph-name="Ugrave" unicode="&#xd9;" horiz-adv-x="647" 
d="M163 674v-399q0 -57 12 -97.5t33 -66.5t49.5 -38.5t62.5 -12.5q75 0 119.5 51.5t44.5 163.5v399h88v-393q0 -78 -19.5 -133t-53.5 -90.5t-80.5 -52t-101.5 -16.5q-52 0 -96 15.5t-76.5 50t-51 89.5t-18.5 133v397h88zM289 827l93 -116h-72l-127 116h106z" />
    <glyph glyph-name="Uacute" unicode="&#xda;" horiz-adv-x="647" 
d="M163 674v-399q0 -57 12 -97.5t33 -66.5t49.5 -38.5t62.5 -12.5q75 0 119.5 51.5t44.5 163.5v399h88v-393q0 -78 -19.5 -133t-53.5 -90.5t-80.5 -52t-101.5 -16.5q-52 0 -96 15.5t-76.5 50t-51 89.5t-18.5 133v397h88zM472 827l-127 -117h-72l93 117h106z" />
    <glyph glyph-name="Ucircumflex" unicode="&#xdb;" horiz-adv-x="647" 
d="M163 674v-399q0 -57 12 -97.5t33 -66.5t49.5 -38.5t62.5 -12.5q75 0 119.5 51.5t44.5 163.5v399h88v-393q0 -78 -19.5 -133t-53.5 -90.5t-80.5 -52t-101.5 -16.5q-52 0 -96 15.5t-76.5 50t-51 89.5t-18.5 133v397h88zM362 824l104 -114h-73l-64 69h-2l-64 -69h-71
l103 114h67z" />
    <glyph glyph-name="Udieresis" unicode="&#xdc;" horiz-adv-x="647" 
d="M163 674v-399q0 -57 12 -97.5t33 -66.5t49.5 -38.5t62.5 -12.5q75 0 119.5 51.5t44.5 163.5v399h88v-393q0 -78 -19.5 -133t-53.5 -90.5t-80.5 -52t-101.5 -16.5q-52 0 -96 15.5t-76.5 50t-51 89.5t-18.5 133v397h88zM233 721q-23 0 -36 15t-13 36q0 20 14 35t35 15
t34.5 -14.5t13.5 -35.5t-13 -36t-35 -15zM418 721q-22 0 -35.5 15t-13.5 36q0 20 14 35t36 15q21 0 34.5 -14.5t13.5 -35.5t-13 -36t-36 -15z" />
    <glyph glyph-name="Yacute" unicode="&#xdd;" horiz-adv-x="541" 
d="M226 0v286l-213 388h99l95 -186q20 -38 35.5 -71t31.5 -68h2q14 33 31 67t37 72l97 186h99l-226 -387v-287h-88zM426 823l-127 -117h-72l93 117h106z" />
    <glyph glyph-name="Thorn" unicode="&#xde;" horiz-adv-x="531" 
d="M76 674h86v-132q43 8 96 8q60 0 103.5 -14t74.5 -41q26 -25 40.5 -58.5t14.5 -72.5q0 -53 -19 -93t-53 -66.5t-80 -40t-101 -13.5q-21 0 -40.5 1.5t-35.5 3.5v-156h-86v674zM162 227q17 -4 36 -5t39 -1q81 0 124 36t43 98q0 66 -42.5 96t-111.5 30q-30 0 -53 -2.5
t-35 -5.5v-246z" />
    <glyph glyph-name="germandbls" unicode="&#xdf;" horiz-adv-x="548" 
d="M73 0v452q0 86 19 137t52 81q57 51 147 51q36 0 68 -11t56.5 -32.5t39 -53t14.5 -72.5q0 -26 -7.5 -48t-15.5 -34q-34 -14 -53 -34.5t-19 -46.5t14 -44.5t37 -42.5q15 -15 29.5 -31t26 -34t18.5 -40t7 -49q0 -71 -47.5 -115t-131.5 -44q-28 0 -56 5t-50 16l16 67
q40 -20 84 -20q48 0 73 24.5t25 59.5q0 32 -13.5 55t-40.5 48q-32 30 -55 60.5t-23 72.5q0 38 23 70t66 53q4 9 6.5 19.5t2.5 23.5q0 52 -28.5 80.5t-75.5 28.5q-58 0 -89 -45t-31 -151v-456h-88z" />
    <glyph glyph-name="agrave" unicode="&#xe0;" horiz-adv-x="482" 
d="M341 0l-7 61h-3q-20 -29 -58 -50.5t-90 -21.5q-37 0 -64.5 12t-46 31.5t-28 44.5t-9.5 51q0 88 75 134.5t216 45.5v10q0 15 -3.5 34.5t-14.5 36.5t-33 29t-59 12q-34 0 -67 -9.5t-59 -26.5l-20 58q30 20 71.5 31.5t87.5 11.5q55 0 91 -17.5t56.5 -45.5t28.5 -63.5
t8 -71.5v-181q0 -32 1.5 -61.5t6.5 -54.5h-80zM328 247q-36 1 -72.5 -3t-66 -15.5t-48 -33.5t-18.5 -57q0 -43 24.5 -63.5t58.5 -20.5q48 0 77 25t40 56q5 15 5 28v84zM192 693l87 -143h-62l-122 143h97z" />
    <glyph glyph-name="aacute" unicode="&#xe1;" horiz-adv-x="482" 
d="M341 0l-7 61h-3q-20 -29 -58 -50.5t-90 -21.5q-37 0 -64.5 12t-46 31.5t-28 44.5t-9.5 51q0 88 75 134.5t216 45.5v10q0 15 -3.5 34.5t-14.5 36.5t-33 29t-59 12q-34 0 -67 -9.5t-59 -26.5l-20 58q30 20 71.5 31.5t87.5 11.5q55 0 91 -17.5t56.5 -45.5t28.5 -63.5
t8 -71.5v-181q0 -32 1.5 -61.5t6.5 -54.5h-80zM328 247q-36 1 -72.5 -3t-66 -15.5t-48 -33.5t-18.5 -57q0 -43 24.5 -63.5t58.5 -20.5q48 0 77 25t40 56q5 15 5 28v84zM372 693l-122 -143h-63l88 143h97z" />
    <glyph glyph-name="acircumflex" unicode="&#xe2;" horiz-adv-x="482" 
d="M341 0l-7 61h-3q-20 -29 -58 -50.5t-90 -21.5q-37 0 -64.5 12t-46 31.5t-28 44.5t-9.5 51q0 88 75 134.5t216 45.5v10q0 15 -3.5 34.5t-14.5 36.5t-33 29t-59 12q-34 0 -67 -9.5t-59 -26.5l-20 58q30 20 71.5 31.5t87.5 11.5q55 0 91 -17.5t56.5 -45.5t28.5 -63.5
t8 -71.5v-181q0 -32 1.5 -61.5t6.5 -54.5h-80zM328 247q-36 1 -72.5 -3t-66 -15.5t-48 -33.5t-18.5 -57q0 -43 24.5 -63.5t58.5 -20.5q48 0 77 25t40 56q5 15 5 28v84zM267 693l96 -143h-68l-58 95h-2l-58 -95h-65l94 143h61z" />
    <glyph glyph-name="atilde" unicode="&#xe3;" horiz-adv-x="482" 
d="M341 0l-7 61h-3q-20 -29 -58 -50.5t-90 -21.5q-37 0 -64.5 12t-46 31.5t-28 44.5t-9.5 51q0 88 75 134.5t216 45.5v10q0 15 -3.5 34.5t-14.5 36.5t-33 29t-59 12q-34 0 -67 -9.5t-59 -26.5l-20 58q30 20 71.5 31.5t87.5 11.5q55 0 91 -17.5t56.5 -45.5t28.5 -63.5
t8 -71.5v-181q0 -32 1.5 -61.5t6.5 -54.5h-80zM328 247q-36 1 -72.5 -3t-66 -15.5t-48 -33.5t-18.5 -57q0 -43 24.5 -63.5t58.5 -20.5q48 0 77 25t40 56q5 15 5 28v84zM115 567q-2 49 17 76.5t51 27.5q17 0 31 -6t31 -16q12 -7 22.5 -12t19.5 -5q12 0 19 8.5t9 34.5h47
q2 -101 -69 -101q-16 0 -30.5 6t-30.5 14q-15 9 -24.5 13.5t-18.5 4.5q-12 0 -18 -12t-8 -33h-48z" />
    <glyph glyph-name="adieresis" unicode="&#xe4;" horiz-adv-x="482" 
d="M341 0l-7 61h-3q-20 -29 -58 -50.5t-90 -21.5q-37 0 -64.5 12t-46 31.5t-28 44.5t-9.5 51q0 88 75 134.5t216 45.5v10q0 15 -3.5 34.5t-14.5 36.5t-33 29t-59 12q-34 0 -67 -9.5t-59 -26.5l-20 58q30 20 71.5 31.5t87.5 11.5q55 0 91 -17.5t56.5 -45.5t28.5 -63.5
t8 -71.5v-181q0 -32 1.5 -61.5t6.5 -54.5h-80zM328 247q-36 1 -72.5 -3t-66 -15.5t-48 -33.5t-18.5 -57q0 -43 24.5 -63.5t58.5 -20.5q48 0 77 25t40 56q5 15 5 28v84zM149 570q-23 0 -37 15.5t-14 35.5q0 21 15 36t36 15t35 -14.5t14 -36.5q0 -20 -13.5 -35.5t-35.5 -15.5z
M334 570q-23 0 -36.5 15.5t-13.5 35.5q0 21 14.5 36t35.5 15t35 -14.5t14 -36.5q0 -20 -13.5 -35.5t-35.5 -15.5z" />
    <glyph glyph-name="aring" unicode="&#xe5;" horiz-adv-x="482" 
d="M341 0l-7 61h-3q-20 -29 -58 -50.5t-90 -21.5q-37 0 -64.5 12t-46 31.5t-28 44.5t-9.5 51q0 88 75 134.5t216 45.5v10q0 15 -3.5 34.5t-14.5 36.5t-33 29t-59 12q-34 0 -67 -9.5t-59 -26.5l-20 58q30 20 71.5 31.5t87.5 11.5q55 0 91 -17.5t56.5 -45.5t28.5 -63.5
t8 -71.5v-181q0 -32 1.5 -61.5t6.5 -54.5h-80zM328 247q-36 1 -72.5 -3t-66 -15.5t-48 -33.5t-18.5 -57q0 -43 24.5 -63.5t58.5 -20.5q48 0 77 25t40 56q5 15 5 28v84zM240 537q-45 0 -73 26.5t-28 64.5q0 40 27 67.5t75 27.5q45 0 72 -27t27 -67t-28.5 -66t-71.5 -26z
M239 574q24 0 38 16.5t14 39.5t-14 39t-38 16q-23 0 -36 -17t-13 -40q0 -20 13.5 -37t35.5 -17z" />
    <glyph glyph-name="ae" unicode="&#xe6;" horiz-adv-x="773" 
d="M410 233q-1 -43 10 -76t31.5 -55t49.5 -33.5t63 -11.5q51 0 81.5 9t50.5 19l16 -62q-29 -16 -70 -25t-89 -9q-62 0 -112.5 28t-71.5 79h-2q-23 -51 -70 -79t-110 -28q-38 0 -66.5 11.5t-47 31t-28 44.5t-9.5 51q0 85 75 131t217 44v20q0 9 -4 27t-16 36t-34 31.5
t-59 13.5q-35 0 -68.5 -11t-55.5 -26l-21 58q32 20 73.5 32t77.5 12q66 0 103.5 -28t52.5 -75h2q25 48 68.5 75.5t100.5 27.5q55 0 91.5 -23.5t58.5 -58t30.5 -73t8.5 -68.5q0 -11 -0.5 -21.5t-2.5 -17.5h-324zM329 243q-35 1 -71.5 -2.5t-66.5 -15.5t-49 -33.5t-19 -57.5
q0 -38 24.5 -59t59.5 -21q48 0 77 25t40 58q3 8 4 17t1 18v71zM652 296q1 18 -4 41.5t-18 44.5t-35.5 35.5t-55.5 14.5t-57 -13.5t-39.5 -34t-24 -44t-9.5 -44.5h243z" />
    <glyph glyph-name="ccedilla" unicode="&#xe7;" horiz-adv-x="448" 
d="M418 18q-17 -9 -53.5 -18.5t-85.5 -9.5q-55 0 -99.5 18t-76 50t-48.5 77.5t-17 101.5t18.5 103t52.5 81.5t82 53.5t107 19q39 0 71.5 -8t50.5 -17l-20 -68q-16 9 -41 16t-61 7q-42 0 -73.5 -14.5t-53.5 -39t-33 -58t-11 -71.5q0 -42 12.5 -75.5t35 -57t53.5 -36t67 -12.5
q38 0 63.5 8t44.5 16zM300 2l-33 -52q28 -4 49 -22t21 -47q0 -22 -8.5 -37.5t-23 -25t-33 -14t-39.5 -4.5q-19 0 -37 4.5t-31 12.5l15 43q12 -8 26 -11.5t28 -3.5q17 0 30 7t13 25q-1 20 -22 29.5t-56 12.5l47 83h54z" />
    <glyph glyph-name="egrave" unicode="&#xe8;" horiz-adv-x="501" 
d="M122 226q1 -45 14.5 -76.5t36 -52t52.5 -30t63 -9.5q48 0 78.5 7t55.5 18l15 -63q-23 -11 -63 -20.5t-98 -9.5q-56 0 -100 17.5t-75 49.5t-47 77t-16 100t15.5 102.5t45 82.5t71.5 55.5t95 20.5q59 0 98 -23t61.5 -57.5t31.5 -74.5t9 -73q0 -14 -1 -24t-2 -17h-340z
M380 289q0 21 -5 46t-18.5 46.5t-37.5 36t-61 14.5q-33 0 -57.5 -14t-41 -35t-25 -46t-11.5 -48h257zM232 693l87 -143h-62l-122 143h97z" />
    <glyph glyph-name="eacute" unicode="&#xe9;" horiz-adv-x="501" 
d="M122 226q1 -45 14.5 -76.5t36 -52t52.5 -30t63 -9.5q48 0 78.5 7t55.5 18l15 -63q-23 -11 -63 -20.5t-98 -9.5q-56 0 -100 17.5t-75 49.5t-47 77t-16 100t15.5 102.5t45 82.5t71.5 55.5t95 20.5q59 0 98 -23t61.5 -57.5t31.5 -74.5t9 -73q0 -14 -1 -24t-2 -17h-340z
M380 289q0 21 -5 46t-18.5 46.5t-37.5 36t-61 14.5q-33 0 -57.5 -14t-41 -35t-25 -46t-11.5 -48h257zM400 693l-122 -143h-63l88 143h97z" />
    <glyph glyph-name="ecircumflex" unicode="&#xea;" horiz-adv-x="501" 
d="M122 226q1 -45 14.5 -76.5t36 -52t52.5 -30t63 -9.5q48 0 78.5 7t55.5 18l15 -63q-23 -11 -63 -20.5t-98 -9.5q-56 0 -100 17.5t-75 49.5t-47 77t-16 100t15.5 102.5t45 82.5t71.5 55.5t95 20.5q59 0 98 -23t61.5 -57.5t31.5 -74.5t9 -73q0 -14 -1 -24t-2 -17h-340z
M380 289q0 21 -5 46t-18.5 46.5t-37.5 36t-61 14.5q-33 0 -57.5 -14t-41 -35t-25 -46t-11.5 -48h257zM293 693l96 -143h-68l-58 95h-2l-58 -95h-65l94 143h61z" />
    <glyph glyph-name="edieresis" unicode="&#xeb;" horiz-adv-x="501" 
d="M122 226q1 -45 14.5 -76.5t36 -52t52.5 -30t63 -9.5q48 0 78.5 7t55.5 18l15 -63q-23 -11 -63 -20.5t-98 -9.5q-56 0 -100 17.5t-75 49.5t-47 77t-16 100t15.5 102.5t45 82.5t71.5 55.5t95 20.5q59 0 98 -23t61.5 -57.5t31.5 -74.5t9 -73q0 -14 -1 -24t-2 -17h-340z
M380 289q0 21 -5 46t-18.5 46.5t-37.5 36t-61 14.5q-33 0 -57.5 -14t-41 -35t-25 -46t-11.5 -48h257zM176 570q-23 0 -37 15.5t-14 35.5q0 21 15 36t36 15t35 -14.5t14 -36.5q0 -20 -13.5 -35.5t-35.5 -15.5zM361 570q-23 0 -36.5 15.5t-13.5 35.5q0 21 14.5 36t35.5 15
t35 -14.5t14 -36.5q0 -20 -13.5 -35.5t-35.5 -15.5z" />
    <glyph glyph-name="igrave" unicode="&#xec;" horiz-adv-x="234" 
d="M73 0v484h88v-484h-88zM70 693l87 -143h-62l-122 143h97z" />
    <glyph glyph-name="iacute" unicode="&#xed;" horiz-adv-x="234" 
d="M73 0v484h88v-484h-88zM253 693l-122 -143h-63l88 143h97z" />
    <glyph glyph-name="icircumflex" unicode="&#xee;" horiz-adv-x="234" 
d="M73 0v484h88v-484h-88zM148 693l96 -143h-68l-58 95h-2l-58 -95h-65l94 143h61z" />
    <glyph glyph-name="idieresis" unicode="&#xef;" horiz-adv-x="234" 
d="M73 0v484h88v-484h-88zM26 570q-23 0 -37 15.5t-14 35.5q0 21 15 36t36 15t35 -14.5t14 -36.5q0 -20 -13.5 -35.5t-35.5 -15.5zM211 570q-23 0 -36.5 15.5t-13.5 35.5q0 21 14.5 36t35.5 15t35 -14.5t14 -36.5q0 -20 -13.5 -35.5t-35.5 -15.5z" />
    <glyph glyph-name="eth" unicode="&#xf0;" horiz-adv-x="541" 
d="M267 55q33 0 59.5 14t45.5 39t29 59.5t10 75.5q0 48 -7.5 79.5t-26.5 54.5q-17 19 -42.5 33t-63.5 14q-39 0 -66.5 -18t-44.5 -45.5t-25 -60.5t-8 -63q0 -38 10.5 -71.5t29 -58t44.5 -38.5t56 -14zM97 550l116 55q-23 17 -49.5 31.5t-54.5 28.5l38 55q36 -17 72.5 -37.5
t68.5 -43.5l128 61l21 -44l-106 -50q42 -34 74 -74t54 -85q20 -42 31 -90t11 -104q0 -70 -20 -120t-53 -82t-75.5 -47t-85.5 -15q-49 0 -91 17.5t-72.5 49.5t-48 77.5t-17.5 102.5q0 59 19 105t50.5 78t72 48.5t83.5 16.5q28 0 55 -8t56 -35l2 3q-22 36 -51 68t-67 61
l-142 -66z" />
    <glyph glyph-name="ntilde" unicode="&#xf1;" horiz-adv-x="555" 
d="M73 353q0 38 -1 69.5t-3 61.5h78l5 -80h2q9 17 24 33.5t35 29t45.5 20.5t55.5 8q25 0 55 -9t55.5 -32t43 -63t17.5 -102v-289h-88v279q0 29 -6 55t-19 45.5t-34.5 31t-52.5 11.5q-44 0 -75.5 -26.5t-42.5 -63.5q-6 -17 -6 -41v-291h-88v353zM154 567q-2 49 17 76.5
t51 27.5q17 0 31 -6t31 -16q12 -7 22.5 -12t19.5 -5q12 0 19 8.5t9 34.5h47q2 -101 -69 -101q-16 0 -30.5 6t-30.5 14q-15 9 -24.5 13.5t-18.5 4.5q-12 0 -18 -12t-8 -33h-48z" />
    <glyph glyph-name="ograve" unicode="&#xf2;" horiz-adv-x="549" 
d="M278 495q52 0 95 -18t73.5 -51t47.5 -79t17 -101q0 -67 -21 -115.5t-55.5 -80t-77.5 -46.5t-87 -15q-49 0 -91.5 17.5t-73.5 49.5t-49 78.5t-18 103.5q0 61 18.5 108.5t51 80.5t76.5 50.5t94 17.5zM276 429q-39 0 -67 -16.5t-46.5 -43t-27 -60.5t-8.5 -68q0 -40 11 -74
t30.5 -59t46.5 -39t59 -14q31 0 58 14t47 39t31 59.5t11 75.5q0 31 -8 64t-25.5 60t-45 44.5t-66.5 17.5zM242 693l87 -143h-62l-122 143h97z" />
    <glyph glyph-name="oacute" unicode="&#xf3;" horiz-adv-x="549" 
d="M278 495q52 0 95 -18t73.5 -51t47.5 -79t17 -101q0 -67 -21 -115.5t-55.5 -80t-77.5 -46.5t-87 -15q-49 0 -91.5 17.5t-73.5 49.5t-49 78.5t-18 103.5q0 61 18.5 108.5t51 80.5t76.5 50.5t94 17.5zM276 429q-39 0 -67 -16.5t-46.5 -43t-27 -60.5t-8.5 -68q0 -40 11 -74
t30.5 -59t46.5 -39t59 -14q31 0 58 14t47 39t31 59.5t11 75.5q0 31 -8 64t-25.5 60t-45 44.5t-66.5 17.5zM406 693l-122 -143h-63l88 143h97z" />
    <glyph glyph-name="ocircumflex" unicode="&#xf4;" horiz-adv-x="549" 
d="M278 495q52 0 95 -18t73.5 -51t47.5 -79t17 -101q0 -67 -21 -115.5t-55.5 -80t-77.5 -46.5t-87 -15q-49 0 -91.5 17.5t-73.5 49.5t-49 78.5t-18 103.5q0 61 18.5 108.5t51 80.5t76.5 50.5t94 17.5zM276 429q-39 0 -67 -16.5t-46.5 -43t-27 -60.5t-8.5 -68q0 -40 11 -74
t30.5 -59t46.5 -39t59 -14q31 0 58 14t47 39t31 59.5t11 75.5q0 31 -8 64t-25.5 60t-45 44.5t-66.5 17.5zM304 693l96 -143h-68l-58 95h-2l-58 -95h-65l94 143h61z" />
    <glyph glyph-name="otilde" unicode="&#xf5;" horiz-adv-x="549" 
d="M278 495q52 0 95 -18t73.5 -51t47.5 -79t17 -101q0 -67 -21 -115.5t-55.5 -80t-77.5 -46.5t-87 -15q-49 0 -91.5 17.5t-73.5 49.5t-49 78.5t-18 103.5q0 61 18.5 108.5t51 80.5t76.5 50.5t94 17.5zM276 429q-39 0 -67 -16.5t-46.5 -43t-27 -60.5t-8.5 -68q0 -40 11 -74
t30.5 -59t46.5 -39t59 -14q31 0 58 14t47 39t31 59.5t11 75.5q0 31 -8 64t-25.5 60t-45 44.5t-66.5 17.5zM151 567q-2 49 17 76.5t51 27.5q17 0 31 -6t31 -16q12 -7 22.5 -12t19.5 -5q12 0 19 8.5t9 34.5h47q2 -101 -69 -101q-16 0 -30.5 6t-30.5 14q-15 9 -24.5 13.5
t-18.5 4.5q-12 0 -18 -12t-8 -33h-48z" />
    <glyph glyph-name="odieresis" unicode="&#xf6;" horiz-adv-x="549" 
d="M278 495q52 0 95 -18t73.5 -51t47.5 -79t17 -101q0 -67 -21 -115.5t-55.5 -80t-77.5 -46.5t-87 -15q-49 0 -91.5 17.5t-73.5 49.5t-49 78.5t-18 103.5q0 61 18.5 108.5t51 80.5t76.5 50.5t94 17.5zM276 429q-39 0 -67 -16.5t-46.5 -43t-27 -60.5t-8.5 -68q0 -40 11 -74
t30.5 -59t46.5 -39t59 -14q31 0 58 14t47 39t31 59.5t11 75.5q0 31 -8 64t-25.5 60t-45 44.5t-66.5 17.5zM182 570q-23 0 -37 15.5t-14 35.5q0 21 15 36t36 15t35 -14.5t14 -36.5q0 -20 -13.5 -35.5t-35.5 -15.5zM367 570q-23 0 -36.5 15.5t-13.5 35.5q0 21 14.5 36t35.5 15
t35 -14.5t14 -36.5q0 -20 -13.5 -35.5t-35.5 -15.5z" />
    <glyph glyph-name="divide" unicode="&#xf7;" horiz-adv-x="596" 
d="M298 387q-24 0 -38.5 16t-14.5 39q0 25 15 40.5t39 15.5q23 0 37.5 -15.5t14.5 -40.5q0 -23 -14 -39t-39 -16zM40 237v60h516v-60h-516zM298 36q-24 0 -38.5 16t-14.5 39q0 25 15 40.5t39 15.5q23 0 37.5 -15.5t14.5 -40.5q0 -23 -14 -39t-39 -16z" />
    <glyph glyph-name="oslash" unicode="&#xf8;" horiz-adv-x="549" 
d="M276 495q68 0 123 -35l42 60l39 -27l-42 -62q35 -34 54 -81t19 -104q0 -67 -21 -115.5t-54.5 -80t-76 -46.5t-84.5 -15q-34 0 -66 8.5t-58 25.5l-43 -61l-37 30l42 60q-35 33 -55 80t-20 107t18.5 107.5t51 80.5t75.5 50.5t93 17.5zM359 400q-17 14 -38 21.5t-47 7.5
q-41 0 -69.5 -17t-46.5 -44t-26.5 -60.5t-8.5 -66.5q0 -32 8.5 -63.5t27.5 -57.5l2 -1zM191 83q17 -15 37.5 -21.5t43.5 -6.5q34 0 62.5 14t48.5 39t31 59.5t11 75.5q0 25 -7 57t-27 61h-2z" />
    <glyph glyph-name="ugrave" unicode="&#xf9;" horiz-adv-x="551" 
d="M478 132q0 -38 1 -70.5t3 -61.5h-78l-5 79h-2q-9 -15 -23 -30.5t-33.5 -29t-45.5 -22t-58 -8.5q-29 0 -58.5 9t-53.5 33t-39.5 65t-15.5 105v283h88v-268q0 -69 24 -111.5t84 -42.5q22 0 40.5 7t33.5 18.5t25.5 25.5t16.5 29q8 21 8 45v297h88v-352zM237 693l87 -143h-62
l-122 143h97z" />
    <glyph glyph-name="uacute" unicode="&#xfa;" horiz-adv-x="551" 
d="M478 132q0 -38 1 -70.5t3 -61.5h-78l-5 79h-2q-9 -15 -23 -30.5t-33.5 -29t-45.5 -22t-58 -8.5q-29 0 -58.5 9t-53.5 33t-39.5 65t-15.5 105v283h88v-268q0 -69 24 -111.5t84 -42.5q22 0 40.5 7t33.5 18.5t25.5 25.5t16.5 29q8 21 8 45v297h88v-352zM418 693l-122 -143
h-63l88 143h97z" />
    <glyph glyph-name="ucircumflex" unicode="&#xfb;" horiz-adv-x="551" 
d="M478 132q0 -38 1 -70.5t3 -61.5h-78l-5 79h-2q-9 -15 -23 -30.5t-33.5 -29t-45.5 -22t-58 -8.5q-29 0 -58.5 9t-53.5 33t-39.5 65t-15.5 105v283h88v-268q0 -69 24 -111.5t84 -42.5q22 0 40.5 7t33.5 18.5t25.5 25.5t16.5 29q8 21 8 45v297h88v-352zM305 693l96 -143h-68
l-58 95h-2l-58 -95h-65l94 143h61z" />
    <glyph glyph-name="udieresis" unicode="&#xfc;" horiz-adv-x="551" 
d="M478 132q0 -38 1 -70.5t3 -61.5h-78l-5 79h-2q-9 -15 -23 -30.5t-33.5 -29t-45.5 -22t-58 -8.5q-29 0 -58.5 9t-53.5 33t-39.5 65t-15.5 105v283h88v-268q0 -69 24 -111.5t84 -42.5q22 0 40.5 7t33.5 18.5t25.5 25.5t16.5 29q8 21 8 45v297h88v-352zM186 570
q-23 0 -37 15.5t-14 35.5q0 21 15 36t36 15t35 -14.5t14 -36.5q0 -20 -13.5 -35.5t-35.5 -15.5zM371 570q-23 0 -36.5 15.5t-13.5 35.5q0 21 14.5 36t35.5 15t35 -14.5t14 -36.5q0 -20 -13.5 -35.5t-35.5 -15.5z" />
    <glyph glyph-name="yacute" unicode="&#xfd;" horiz-adv-x="471" 
d="M105 484l106 -286q8 -24 16.5 -50.5t14.5 -48.5h2q7 22 14.5 48.5t16.5 52.5l96 284h93l-132 -345q-24 -62 -44.5 -110t-40 -84.5t-39.5 -63t-42 -45.5q-32 -29 -61.5 -41.5t-46.5 -15.5l-22 74q17 5 37 15.5t40 27.5q18 14 38.5 39t35.5 59q7 16 7 21q0 6 -6 23
l-179 446h96zM381 693l-122 -143h-63l88 143h97z" />
    <glyph glyph-name="thorn" unicode="&#xfe;" horiz-adv-x="569" 
d="M160 710v-303h2q25 40 65 64t100 24q43 0 80 -17.5t64.5 -49.5t43.5 -78t16 -102q0 -66 -19 -115t-50 -81t-70.5 -47.5t-80.5 -15.5q-48 0 -87 20t-62 56h-2v-263h-87v908h87zM160 191q0 -22 10 -44q14 -42 49 -65.5t79 -23.5q66 0 105.5 50.5t39.5 138.5q0 36 -9.5 68.5
t-28 56.5t-45 38.5t-60.5 14.5q-42 0 -78 -25.5t-52 -70.5q-4 -11 -7 -24t-3 -25v-89z" />
    <glyph glyph-name="ydieresis" unicode="&#xff;" horiz-adv-x="471" 
d="M105 484l106 -286q8 -24 16.5 -50.5t14.5 -48.5h2q7 22 14.5 48.5t16.5 52.5l96 284h93l-132 -345q-24 -62 -44.5 -110t-40 -84.5t-39.5 -63t-42 -45.5q-32 -29 -61.5 -41.5t-46.5 -15.5l-22 74q17 5 37 15.5t40 27.5q18 14 38.5 39t35.5 59q7 16 7 21q0 6 -6 23
l-179 446h96zM155 570q-23 0 -37 15.5t-14 35.5q0 21 15 36t36 15t35 -14.5t14 -36.5q0 -20 -13.5 -35.5t-35.5 -15.5zM340 570q-23 0 -36.5 15.5t-13.5 35.5q0 21 14.5 36t35.5 15t35 -14.5t14 -36.5q0 -20 -13.5 -35.5t-35.5 -15.5z" />
    <glyph glyph-name="OE" unicode="&#x152;" horiz-adv-x="894" 
d="M857 0h-345q-15 0 -31.5 -2t-34.5 -4q-19 -2 -39 -3.5t-44 -1.5q-78 0 -139 26.5t-103 72.5t-63.5 109t-21.5 135q0 83 24.5 148.5t68.5 111t105 69.5t134 24q26 0 47.5 -1.5t40.5 -3.5t34.5 -4t29.5 -2h322v-73h-277v-213h261v-73h-261v-242h292v-73zM477 599
q-20 7 -45 11t-61 4q-57 0 -102 -20t-76 -57t-47.5 -88t-16.5 -113t16.5 -112.5t49 -87t79 -56.5t105.5 -20q28 0 54.5 3.5t43.5 9.5v526z" />
    <glyph glyph-name="oe" unicode="&#x153;" horiz-adv-x="863" 
d="M495 227q0 -41 12.5 -72.5t34 -53t50.5 -32.5t64 -11q45 0 75 8t55 19l16 -63q-15 -8 -33.5 -14.5t-39.5 -10.5t-42.5 -6t-41.5 -2q-63 0 -112.5 27t-78.5 87h-3q-14 -29 -34 -50.5t-45 -35.5t-52.5 -21t-55.5 -7q-48 0 -89.5 17.5t-71.5 50t-47.5 79t-17.5 103.5
q0 59 18 106.5t49.5 80.5t73.5 51t91 18q62 0 111 -30t72 -86h2q27 58 73 87t103 29q58 0 96 -23.5t60 -58t31 -74t9 -71.5q0 -28 -3 -41h-329zM271 429q-40 0 -67.5 -17.5t-44.5 -45t-24.5 -61t-7.5 -64.5q0 -39 10.5 -73t30 -59t45.5 -39.5t58 -14.5t58 13.5t45 38.5
t29 59t10 76q0 34 -8 68t-25.5 60t-44.5 42.5t-64 16.5zM742 290q0 20 -4.5 44.5t-18 46t-36.5 36t-59 14.5q-33 0 -56.5 -13.5t-39 -34t-23.5 -45.5t-10 -48h247z" />
    <glyph glyph-name="Ydieresis" unicode="&#x178;" horiz-adv-x="541" 
d="M226 0v286l-213 388h99l95 -186q20 -38 35.5 -71t31.5 -68h2q14 33 31 67t37 72l97 186h99l-226 -387v-287h-88zM187 715q-23 0 -36 15t-13 36q0 20 14 35t35 15t34.5 -14.5t13.5 -35.5t-13 -36t-35 -15zM372 715q-22 0 -35.5 15t-13.5 36q0 20 14 35t36 15
q21 0 34.5 -14.5t13.5 -35.5t-13 -36t-36 -15z" />
    <glyph glyph-name="tilde" unicode="&#x2dc;" horiz-adv-x="300" 
d="M27 567q-2 49 17 76.5t51 27.5q17 0 31 -6t31 -16q12 -7 22.5 -12t19.5 -5q12 0 19 8.5t9 34.5h47q2 -101 -69 -101q-16 0 -30.5 6t-30.5 14q-15 9 -24.5 13.5t-18.5 4.5q-12 0 -18 -12t-8 -33h-48z" />
    <glyph glyph-name="endash" unicode="&#x2013;" horiz-adv-x="500" 
d="M470 284v-60h-440v60h440z" />
    <glyph glyph-name="emdash" unicode="&#x2014;" horiz-adv-x="1000" 
d="M970 284v-60h-940v60h940z" />
    <glyph glyph-name="quoteleft" unicode="&#x2018;" horiz-adv-x="207" 
d="M35 441q9 31 20.5 66t24.5 67.5t25.5 60t22.5 44.5l56 6q-8 -22 -16.5 -51.5t-16.5 -61t-15 -63t-11 -58.5z" />
    <glyph glyph-name="quoteright" unicode="&#x2019;" horiz-adv-x="207" 
d="M184 685q-9 -32 -20.5 -66.5t-24.5 -66.5t-26 -59.5t-23 -44.5l-56 -7q8 22 17 51.5t17 61t14.5 63.5t10.5 59z" />
    <glyph glyph-name="quotedblleft" unicode="&#x201c;" horiz-adv-x="354" 
d="M34 441q9 31 20.5 66t24.5 67.5t25.5 60t23.5 44.5l56 6q-8 -22 -17 -51.5t-17 -61t-14.5 -63t-10.5 -58.5zM183 441q8 31 20 66t24.5 67.5t25.5 60t23 44.5l56 6q-8 -22 -17 -51.5t-17 -61t-14.5 -63t-10.5 -58.5z" />
    <glyph glyph-name="quotedblright" unicode="&#x201d;" horiz-adv-x="354" 
d="M183 685q-9 -32 -20.5 -66.5t-24.5 -66.5t-25.5 -59.5t-22.5 -44.5l-56 -7q8 22 16.5 51.5t16.5 61t15 63.5t11 59zM331 685q-9 -32 -20.5 -66.5t-24.5 -66.5t-25.5 -59.5t-22.5 -44.5l-56 -7q8 22 17 51.5t17 61t14.5 63.5t10.5 59z" />
    <glyph glyph-name="quotedblbase" unicode="&#x201e;" horiz-adv-x="356" 
d="M20 -118q8 22 17 51.5t17 61t14.5 63t10.5 58.5l90 10q-8 -32 -20 -66.5t-24.5 -66.5t-25.5 -59.5t-23 -44.5zM168 -118q8 22 17 51.5t17 61t14.5 63t10.5 58.5l91 10q-9 -32 -20.5 -66.5t-24.5 -66.5t-26 -59.5t-23 -44.5z" />
    <glyph glyph-name="bullet" unicode="&#x2022;" horiz-adv-x="282" 
d="M141 157q-44 0 -74.5 29.5t-30.5 74.5q0 22 8 41t22.5 33.5t33.5 22.5t41 8t41 -8t33 -22t22.5 -33t8.5 -41q0 -45 -30 -75t-75 -30z" />
    <glyph glyph-name="ellipsis" unicode="&#x2026;" horiz-adv-x="1000" 
d="M167 -11q-26 0 -43 18t-16 45q0 28 16.5 45.5t42.5 17.5q27 0 43 -17.5t16 -45.5q0 -27 -16 -45t-43 -18zM500 -11q-26 0 -43 18t-16 45q0 28 17 45.5t43 17.5t42 -17.5t17 -45.5q0 -27 -16.5 -45t-43.5 -18zM833 -11q-26 0 -42.5 18t-16.5 45q0 28 17 45.5t43 17.5
t42.5 -17.5t16.5 -45.5q0 -27 -16 -45t-44 -18z" />
    <glyph glyph-name="guilsinglleft" unicode="&#x2039;" horiz-adv-x="255" 
d="M98 252l134 -184h-71l-132 184l132 184h71z" />
    <glyph glyph-name="guilsinglright" unicode="&#x203a;" horiz-adv-x="255" 
d="M23 436h70l134 -184l-133 -184h-71l134 184z" />
    <glyph glyph-name="Euro" unicode="&#x20ac;" 
d="M496 31q-23 -16 -61 -29t-88 -13q-61 0 -113 22.5t-90 66.5q-29 32 -47 75t-25 97h-62v49h57v15q0 12 0.5 23t1.5 22h-59v50h66q9 53 30.5 95.5t51.5 73.5q38 40 87 61.5t111 21.5q45 0 78.5 -10.5t54.5 -21.5l-20 -66q-19 11 -48.5 19.5t-63.5 8.5q-80 0 -132 -55
q-23 -22 -37.5 -54.5t-22.5 -72.5h279v-50h-288q-1 -10 -1.5 -20.5t-0.5 -21.5v-18h290v-49h-283q6 -44 20.5 -76t34.5 -55q28 -29 64 -43.5t77 -14.5q40 0 72.5 11.5t49.5 21.5z" />
    <glyph glyph-name="trademark" unicode="&#x2122;" horiz-adv-x="619" 
d="M258 674v-45h-87v-227h-54v227h-87v45h228zM552 402l-10 160q-1 16 -1 35t-1 41h-3q-5 -18 -11 -40t-12 -41l-49 -151h-56l-49 155q-4 16 -9 37.5t-10 39.5h-3q0 -19 -0.5 -38t-1.5 -38l-10 -160h-52l20 272h81l47 -133q5 -16 9 -32t9 -37h1q5 19 9.5 36t9.5 32l47 134
h78l21 -272h-54z" />
    <glyph glyph-name="G_tildecomb" unicode="&#xe000;" horiz-adv-x="646" 
d="M589 30q-29 -11 -83.5 -24t-123.5 -13q-77 0 -139.5 20.5t-112.5 68.5q-44 42 -69 107t-25 144q0 75 25.5 139t72.5 110.5t114.5 72.5t152.5 26q59 0 102.5 -10t65.5 -21l-21 -71q-27 12 -62.5 20.5t-86.5 8.5q-62 0 -112 -18.5t-85 -53.5t-54.5 -85.5t-19.5 -113.5
q0 -64 18.5 -114.5t52.5 -85.5t82 -53.5t107 -18.5q43 0 72 5t44 13v201h-137v70h222v-324zM245 715q-2 46 16.5 74t51.5 28q17 0 30 -6t29 -14q12 -7 24 -12.5t24 -5.5q11 0 18 7.5t9 31.5h46q2 -97 -67 -97q-16 0 -30 5.5t-31 13.5q-14 8 -25 13.5t-22 5.5q-12 0 -18 -12
t-8 -32h-47z" />
    <glyph glyph-name="M_uni0302" unicode="&#xe001;" horiz-adv-x="804" 
d="M644 296q-2 35 -4 73t-3.5 76t-2 74t-0.5 68h-3q-17 -60 -38 -123t-47 -133l-119 -327h-66l-109 321q-24 72 -44 137t-34 125h-2q-2 -63 -5 -142.5t-8 -155.5l-18 -289h-83l47 674h111l115 -326q21 -63 38 -118.5t30 -108.5h3q13 51 30.5 107t40.5 120l120 326h111
l42 -674h-85zM435 824l104 -114h-73l-64 69h-2l-64 -69h-71l103 114h67z" />
    <glyph glyph-name="N_uni0302" unicode="&#xe002;" horiz-adv-x="658" 
d="M76 0v674h95l216 -341q38 -60 67.5 -113.5t53.5 -105.5l2 1q-6 68 -8 133t-2 144v282h82v-674h-88l-214 342q-35 57 -67.5 113.5t-58.5 111.5l-3 -1q4 -64 5.5 -129t1.5 -149v-288h-82zM362 824l104 -114h-73l-64 69h-2l-64 -69h-71l103 114h67z" />
    <glyph glyph-name="g_tildecomb" unicode="&#xe005;" horiz-adv-x="559" 
d="M490 484q-2 -26 -3 -57t-1 -76v-281q0 -84 -17 -136.5t-52 -84.5q-35 -33 -82.5 -45.5t-93.5 -12.5q-44 0 -88 10t-73 30l22 67q24 -15 60.5 -26.5t81.5 -11.5q34 0 62.5 9t49.5 29.5t32.5 52.5t11.5 78v54h-2q-20 -34 -58.5 -57.5t-95.5 -23.5q-45 0 -83 18t-65 49.5
t-42.5 75t-15.5 93.5q0 61 18.5 109t49 81t69.5 50t81 17q31 0 56 -7.5t43.5 -19.5t31 -27t20.5 -30h2l4 73h77zM399 293q0 11 -1 21t-4 19q-12 38 -43.5 65.5t-79.5 27.5q-32 0 -58 -13t-45.5 -36.5t-30 -57.5t-10.5 -76q0 -36 9 -67.5t27 -55t44.5 -37.5t62.5 -14
q41 0 74.5 24t47.5 66q4 11 5.5 23.5t1.5 23.5v87zM156 567q-2 49 17 76.5t51 27.5q17 0 31 -6t31 -16q12 -7 22.5 -12t19.5 -5q12 0 19 8.5t9 34.5h47q2 -101 -69 -101q-16 0 -30.5 6t-30.5 14q-15 9 -24.5 13.5t-18.5 4.5q-12 0 -18 -12t-8 -33h-48z" />
    <glyph glyph-name="m_uni0302" unicode="&#xe006;" horiz-adv-x="834" 
d="M73 353q0 38 -1 69.5t-3 61.5h77l4 -78h3q10 17 24 33t32.5 28.5t42 20t53.5 7.5q50 0 85.5 -27t51.5 -70h2q11 20 25 36t29 27q22 17 47 25.5t60 8.5q24 0 52 -9t51.5 -33t39.5 -64.5t16 -103.5v-285h-86v274q0 70 -25.5 109.5t-79.5 39.5q-38 0 -65.5 -24t-38.5 -56
q-3 -9 -5 -20.5t-2 -23.5v-299h-86v290q0 58 -25 95.5t-76 37.5q-42 0 -70 -27.5t-39 -60.5q-7 -18 -7 -43v-292h-86v353zM447 693l96 -143h-68l-58 95h-2l-58 -95h-65l94 143h61z" />
    <glyph glyph-name="fraction" horiz-adv-x="121" 
d="M-157 -11l379 672h57l-380 -672h-56z" />
    <glyph glyph-name="circumflex" horiz-adv-x="300" 
d="M180 693l96 -143h-68l-58 95h-2l-58 -95h-65l94 143h61z" />
    <glyph glyph-name="ring" horiz-adv-x="300" 
d="M142 537q-45 0 -73 26.5t-28 64.5q0 40 27 67.5t75 27.5q45 0 72 -27t27 -67t-28.5 -66t-71.5 -26zM141 574q24 0 38 16.5t14 39.5t-14 39t-38 16q-23 0 -36 -17t-13 -40q0 -20 13.5 -37t35.5 -17z" />
    <glyph glyph-name="dotlessi" horiz-adv-x="234" 
d="M73 0v484h88v-484h-88z" />
    <glyph glyph-name="zero.slash" 
d="M347 542q-15 24 -37.5 37.5t-52.5 13.5q-31 0 -56 -19t-42.5 -53.5t-27.5 -83.5t-10 -109q0 -97 25 -160zM169 106q34 -49 86 -49q34 0 59.5 19t43 54t26 85.5t8.5 112.5q0 88 -21 153zM262 661q103 0 159 -86.5t56 -242.5q0 -167 -58.5 -255t-167.5 -88q-96 0 -154.5 86
t-60.5 248q0 82 16.5 145t46.5 106t71.5 65t91.5 22z" />
    <glyph glyph-name="zero.oldstyle" horiz-adv-x="530" 
d="M265 -11q-47 0 -87.5 17t-71.5 49t-48.5 79.5t-17.5 107.5q0 59 17.5 106t48.5 79.5t71.5 50t87.5 17.5q46 0 87 -17t72 -49.5t48.5 -79.5t17.5 -107q0 -59 -17.5 -106t-48 -79.5t-71.5 -50t-88 -17.5zM265 56q33 0 59 14t44 39t27.5 59t9.5 74t-9.5 74t-27.5 59t-44 39
t-59 14t-59 -14t-44 -39t-27.5 -59t-9.5 -74t9.5 -74t27.5 -59t44 -39t59 -14z" />
    <glyph glyph-name="one.oldstyle" horiz-adv-x="362" 
d="M179 0v409h-2l-135 -63l-16 65l164 75h73v-486h-84z" />
    <glyph glyph-name="two.oldstyle" horiz-adv-x="448" 
d="M24 0v48l48 34q57 37 99 69t70 61t42 57.5t14 58.5q0 49 -30.5 72.5t-77.5 23.5q-39 0 -74.5 -14.5t-61.5 -33.5l-23 57q13 10 31.5 21t42 20t50.5 15t57 6q38 0 70 -10.5t55 -30.5t36 -48.5t13 -65.5q0 -35 -13 -65t-36 -58.5t-56 -55.5t-72 -55l-51 -37v-3q18 2 40 3
t41 1h182v-70h-396z" />
    <glyph glyph-name="three.oldstyle" horiz-adv-x="433" 
d="M28 -31q19 -7 48 -11.5t61 -4.5q37 0 68 8.5t53.5 24.5t35 38.5t12.5 49.5q0 48 -41.5 75t-110.5 27q-17 0 -31.5 -0.5t-23.5 -1.5l-2 64l19 2q35 3 65 11t51.5 21t34 31.5t12.5 41.5q0 41 -28 61t-77 20q-38 0 -71.5 -12.5t-51.5 -22.5l-18 59q23 16 66.5 30.5
t93.5 14.5q38 0 70 -9.5t55 -26.5t36 -42.5t13 -56.5q0 -51 -33.5 -87t-84.5 -51v-3q30 -4 56.5 -15t46.5 -29t32 -43t12 -57q0 -43 -20.5 -78.5t-55 -60.5t-80 -38.5t-96.5 -13.5q-39 0 -74.5 6t-52.5 14z" />
    <glyph glyph-name="four.oldstyle" horiz-adv-x="502" 
d="M392 50v-165h-82v165h-292v57l279 384h95v-374h91v-67h-91zM310 317q0 25 0.5 48t2.5 46l-4 1q-24 -49 -54 -94l-150 -198l2 -3h203v200z" />
    <glyph glyph-name="five.oldstyle" horiz-adv-x="441" 
d="M47 -35q17 -5 45 -9t57 -4q32 0 61.5 8.5t52.5 24.5t36.5 40t13.5 56q0 22 -8.5 40.5t-22.5 32.5q-29 29 -87 39t-141 4l52 287h287l-11 -72h-217l-30 -150q63 2 122 -10.5t99 -50.5q23 -22 34.5 -51.5t11.5 -61.5q0 -46 -18.5 -83.5t-51.5 -64.5t-79.5 -41.5
t-102.5 -14.5q-33 0 -64 5t-50 13z" />
    <glyph glyph-name="six.oldstyle" horiz-adv-x="520" 
d="M438 541q-68 -4 -119.5 -23t-88 -48.5t-58.5 -67.5t-31 -81h3q19 27 56.5 50t89.5 23q38 0 72 -13.5t59.5 -38t40.5 -60t15 -80.5q0 -50 -18 -89.5t-47 -67t-66.5 -42t-76.5 -14.5q-50 0 -91 18t-70 50t-45 77.5t-16 100.5q0 78 26.5 143.5t76 114.5t121 78.5t161.5 34.5
zM269 56q22 0 43.5 9t39 26.5t28 44t10.5 62.5q0 62 -33.5 97.5t-88.5 35.5q-34 0 -60 -14t-40 -29q-19 -19 -26 -38t-7 -44q0 -30 9.5 -57.5t27 -48t42.5 -32.5t55 -12z" />
    <glyph glyph-name="seven.oldstyle" horiz-adv-x="428" 
d="M405 428q-23 -61 -56 -131.5t-71 -142.5t-78 -141.5t-78 -127.5l-82 15q31 45 70 110t78 136.5t73 140.5t54 122v2h-298v73h388v-56z" />
    <glyph glyph-name="eight.oldstyle" 
d="M343 317q57 -20 93 -58.5t36 -92.5q0 -41 -17 -73.5t-47 -55.5t-69.5 -35.5t-84.5 -12.5q-47 0 -86.5 12.5t-67.5 34.5t-43.5 52.5t-15.5 66.5q0 55 34.5 94t90.5 64v3q-43 18 -72 49.5t-29 79.5q0 36 15 66t41.5 51t62.5 33t78 12t76.5 -12t59 -32t38 -48t13.5 -59
q0 -85 -106 -136v-3zM261 547q-46 0 -78.5 -25.5t-32.5 -69.5q0 -41 31.5 -67t88.5 -41q41 12 69 39t28 69q0 24 -9 41.5t-24 29.5t-34 18t-39 6zM255 52q27 0 50 7.5t40 21.5t27 33.5t10 43.5q0 48 -36.5 79.5t-105.5 49.5q-50 -17 -80.5 -49t-30.5 -74q0 -49 33.5 -80.5
t92.5 -31.5z" />
    <glyph glyph-name="nine.oldstyle" horiz-adv-x="520" 
d="M76 -51q64 3 115 19t88.5 43.5t61.5 65t34 81.5h-2q-15 -25 -53.5 -46t-89.5 -21q-38 0 -72 13t-59.5 37.5t-40.5 60t-15 80.5t16.5 84t46 67.5t69 45t85.5 16.5q44 0 83 -16t67.5 -46.5t45 -75.5t16.5 -102q0 -82 -27 -149t-77.5 -115t-123 -76t-162.5 -31zM252 153
q38 0 71 19.5t47 45.5q7 10 11 25.5t4 34.5q0 34 -10.5 61.5t-28 47t-41 30t-49.5 10.5q-23 0 -45.5 -8.5t-40 -26t-28.5 -43.5t-11 -61t10 -60t26.5 -42t38.5 -25t46 -8z" />
    <glyph glyph-name="percent.oldstyle" horiz-adv-x="818" 
d="M184 603q69 0 110 -50t41 -144q0 -51 -12.5 -89.5t-34 -64t-50 -38.5t-59.5 -13q-30 0 -57.5 12t-48.5 36.5t-33.5 61.5t-12.5 86t12.5 86.5t34 63.5t50 39.5t60.5 13.5zM182 550q-21 0 -36.5 -11.5t-26.5 -31.5t-16.5 -46.5t-5.5 -57.5t5.5 -57.5t16 -46t26.5 -31
t36 -11.5q44 0 64 41.5t20 106.5q0 30 -4.5 56t-14 46t-25.5 31.5t-39 11.5zM205 -12l352 620h55l-351 -620h-56zM640 392q69 0 109.5 -50t40.5 -144q0 -51 -12.5 -89.5t-34 -64t-49.5 -38.5t-59 -13q-30 0 -57.5 12t-48.5 36.5t-33.5 61t-12.5 85.5t12 87t33.5 64
t50.5 39.5t61 13.5zM637 339q-21 0 -36.5 -11.5t-26 -31.5t-16.5 -46.5t-6 -57.5t5.5 -58t16.5 -46.5t27 -30.5t36 -11q43 0 63.5 41.5t20.5 106.5q0 30 -4.5 56t-14.5 46t-26 31.5t-39 11.5z" />
    <glyph glyph-name="zero.fitted" 
d="M262 661q103 0 159 -86.5t56 -242.5q0 -167 -58.5 -255t-167.5 -88q-96 0 -154.5 86t-60.5 248q0 82 16.5 145t46.5 106t71.5 65t91.5 22zM257 593q-58 0 -95.5 -68.5t-37.5 -202.5q0 -128 36 -196.5t96 -68.5q34 0 59 19t41.5 54t24.5 85.5t8 112.5q0 60 -8 109
t-24 83.5t-41 53.5t-59 19z" />
    <glyph glyph-name="one.fitted" horiz-adv-x="326" 
d="M152 568h-2l-113 -61l-17 67l142 76h75v-650h-85v568z" />
    <glyph glyph-name="two.fitted" horiz-adv-x="447" 
d="M4 0v54l69 67q62 59 107.5 106t75.5 86.5t44.5 75t14.5 72.5q0 25 -6.5 48t-21.5 40.5t-40 28t-61 10.5q-45 0 -80 -18t-58 -37l-28 62q34 29 80.5 47.5t103.5 18.5q52 0 90 -16.5t62 -43t35.5 -60.5t11.5 -69q0 -45 -15.5 -86.5t-45 -83.5t-71 -86t-92.5 -93l-52 -48v-2
h292v-73h-415z" />
    <glyph glyph-name="three.fitted" horiz-adv-x="450" 
d="M32 101q19 -12 58.5 -26.5t85.5 -14.5q42 0 70.5 12t45.5 30.5t24 41t7 42.5q0 34 -14.5 58.5t-38 40.5t-53.5 23.5t-62 7.5h-49v66h49q24 0 49.5 6.5t47 20t35 34t13.5 49.5q0 39 -26.5 68.5t-87.5 29.5q-39 0 -74 -14t-56 -29l-23 64q26 19 71.5 34.5t98.5 15.5
q48 0 83 -13t58 -35t34 -49.5t11 -57.5q0 -51 -30 -91t-90 -62v-2q30 -6 56.5 -20t46 -35.5t31 -49.5t11.5 -62q0 -39 -15 -74.5t-45 -62t-74.5 -42.5t-102.5 -16q-55 0 -100 14t-69 30z" />
    <glyph glyph-name="four.fitted" horiz-adv-x="503" 
d="M314 0v177h-302v58l290 415h95v-404h91v-69h-91v-177h-83zM314 246v217q0 51 3 102h-3q-15 -29 -27.5 -51t-26.5 -45l-159 -221v-2h213z" />
    <glyph glyph-name="five.fitted" horiz-adv-x="460" 
d="M407 576h-248l-25 -167q11 2 23 3t30 1q38 0 74 -8.5t66 -26.5q38 -22 65.5 -63.5t27.5 -103.5q0 -48 -18 -88.5t-50 -70t-76.5 -46.5t-97.5 -17q-54 0 -96.5 12.5t-65.5 27.5l22 67q20 -12 57 -24t82 -12q31 0 59 10t49 28t33.5 44t12.5 59q0 31 -11 57.5t-34 46t-58 30
t-84 10.5q-28 0 -50 -2.5t-40 -4.5l42 312h311v-74z" />
    <glyph glyph-name="six.fitted" horiz-adv-x="515" 
d="M418 588q-14 1 -30.5 0t-35.5 -4q-52 -9 -91.5 -31t-67.5 -53t-44.5 -69t-22.5 -78h3q23 31 63 53t94 22q43 0 79 -15t62 -42.5t40.5 -66t14.5 -86.5q0 -45 -15 -86t-42.5 -73t-67.5 -51t-91 -19q-52 0 -94.5 19.5t-72.5 55.5t-46.5 87.5t-16.5 114.5q0 97 31 171t79 122
q41 40 93.5 64t114.5 32q20 3 36 4t28 1v-72zM266 57q57 0 92 43t35 113t-36.5 109.5t-97.5 39.5q-40 0 -74 -22.5t-52 -57.5q-10 -17 -10 -39q1 -40 10.5 -74t27.5 -59t44 -39t61 -14z" />
    <glyph glyph-name="seven.fitted" horiz-adv-x="412" 
d="M412 650v-58l-283 -592h-91l282 575v2h-318v73h410z" />
    <glyph glyph-name="eight.fitted" 
d="M255 -11q-51 0 -91.5 14t-68.5 38t-43 56t-15 68q0 62 34.5 105t94.5 69l-1 3q-54 26 -78.5 65t-24.5 81q0 39 15.5 70.5t42.5 54.5t63.5 35.5t79.5 12.5q47 0 82.5 -13.5t59 -36t35.5 -51.5t12 -59q0 -42 -23.5 -82.5t-83.5 -69.5v-3q61 -24 96 -66t35 -102
q0 -42 -17 -77t-47 -60t-70.5 -38.5t-86.5 -13.5zM257 53q60 0 95 32.5t35 83.5q0 59 -38.5 91t-104.5 51q-57 -17 -87 -52t-30 -82q-1 -25 7.5 -47.5t25.5 -39.5t41.5 -27t55.5 -10zM258 598q-55 0 -84 -31t-29 -73q0 -49 33.5 -77t90.5 -43q42 14 70.5 43.5t28.5 74.5
q0 19 -6 38t-19.5 34t-34 24.5t-50.5 9.5z" />
    <glyph glyph-name="nine.fitted" horiz-adv-x="517" 
d="M96 62q14 -2 31 -0.5t40 3.5q38 5 73 21t63 42q32 29 54.5 72t31.5 101h-3q-27 -33 -65.5 -51.5t-87.5 -18.5q-44 0 -79.5 15.5t-60.5 42.5t-38.5 63t-13.5 78q0 46 16 88t45 73.5t70 50.5t91 19t90 -19.5t67.5 -55.5t42.5 -86.5t15 -112.5q0 -108 -32 -183t-80 -122
q-38 -37 -87 -59t-102 -28q-24 -4 -44.5 -5t-36.5 0v72zM256 594q-28 0 -51.5 -12t-40.5 -33t-26.5 -50t-9.5 -63q0 -61 34 -99.5t91 -38.5q45 0 78 19.5t50 48.5q8 13 8 32q0 42 -8 77.5t-24 62t-41.5 41.5t-59.5 15z" />
    <glyph glyph-name="zero.slashfitted" 
d="M347 542q-15 24 -37.5 37.5t-52.5 13.5q-31 0 -56 -19t-42.5 -53.5t-27.5 -83.5t-10 -109q0 -97 25 -160zM169 106q34 -49 86 -49q34 0 59.5 19t43 54t26 85.5t8.5 112.5q0 88 -21 153zM262 661q103 0 159 -86.5t56 -242.5q0 -167 -58.5 -255t-167.5 -88q-96 0 -154.5 86
t-60.5 248q0 82 16.5 145t46.5 106t71.5 65t91.5 22z" />
    <glyph glyph-name="zero.taboldstyle" horiz-adv-x="530" 
d="M265 -11q-47 0 -87.5 17t-71.5 49t-48.5 79.5t-17.5 107.5q0 59 17.5 106t48.5 79.5t71.5 50t87.5 17.5q46 0 87 -17t72 -49.5t48.5 -79.5t17.5 -107q0 -59 -17.5 -106t-48 -79.5t-71.5 -50t-88 -17.5zM265 56q33 0 59 14t44 39t27.5 59t9.5 74t-9.5 74t-27.5 59t-44 39
t-59 14t-59 -14t-44 -39t-27.5 -59t-9.5 -74t9.5 -74t27.5 -59t44 -39t59 -14z" />
    <glyph glyph-name="one.taboldstyle" horiz-adv-x="530" 
d="M281 0v412h-2l-186 -84l-15 65l215 93h73v-486h-85z" />
    <glyph glyph-name="two.taboldstyle" horiz-adv-x="530" 
d="M66 0v48l48 34q57 37 99 69t70 61t42 57.5t14 58.5q0 49 -30.5 72.5t-77.5 23.5q-39 0 -74.5 -14.5t-61.5 -33.5l-23 57q13 10 31.5 21t42 20t50.5 15t57 6q38 0 70 -10.5t55 -30.5t36 -48.5t13 -65.5q0 -35 -13 -65t-36 -58.5t-56 -55.5t-72 -55l-51 -37v-3q18 2 40 3
t41 1h182v-70h-396z" />
    <glyph glyph-name="three.taboldstyle" horiz-adv-x="530" 
d="M72 -31q19 -7 48 -11.5t61 -4.5q37 0 68 8.5t53.5 24.5t35 38.5t12.5 49.5q0 48 -41.5 75t-110.5 27q-17 0 -31.5 -0.5t-23.5 -1.5l-2 64l19 2q35 3 65 11t51.5 21t34 31.5t12.5 41.5q0 41 -28 61t-77 20q-38 0 -71.5 -12.5t-51.5 -22.5l-18 59q23 16 66.5 30.5
t93.5 14.5q38 0 70 -9.5t55 -26.5t36 -42.5t13 -56.5q0 -51 -33.5 -87t-84.5 -51v-3q30 -4 56.5 -15t46.5 -29t32 -43t12 -57q0 -43 -20.5 -78.5t-55 -60.5t-80 -38.5t-96.5 -13.5q-39 0 -74.5 6t-52.5 14z" />
    <glyph glyph-name="four.taboldstyle" horiz-adv-x="530" 
d="M406 50v-165h-82v165h-292v57l279 384h95v-374h91v-67h-91zM324 317q0 25 0.5 48t2.5 46l-4 1q-24 -49 -54 -94l-150 -198l2 -3h203v200z" />
    <glyph glyph-name="five.taboldstyle" horiz-adv-x="530" 
d="M89 -35q17 -5 45 -9t57 -4q32 0 61.5 8.5t52.5 24.5t36.5 40t13.5 56q0 22 -8.5 40.5t-22.5 32.5q-29 29 -87 39t-141 4l52 287h287l-11 -72h-217l-30 -150q63 2 122 -10.5t99 -50.5q23 -22 34.5 -51.5t11.5 -61.5q0 -46 -18.5 -83.5t-51.5 -64.5t-79.5 -41.5
t-102.5 -14.5q-33 0 -64 5t-50 13z" />
    <glyph glyph-name="six.taboldstyle" horiz-adv-x="530" 
d="M447 541q-68 -4 -119.5 -23t-88 -48.5t-58.5 -67.5t-31 -81h3q19 27 56.5 50t89.5 23q38 0 72 -13.5t59.5 -38t40.5 -60t15 -80.5q0 -50 -18 -89.5t-47 -67t-66.5 -42t-76.5 -14.5q-50 0 -91 18t-70 50t-45 77.5t-16 100.5q0 78 26.5 143.5t76 114.5t121 78.5t161.5 34.5
zM278 56q22 0 43.5 9t39 26.5t28 44t10.5 62.5q0 62 -33.5 97.5t-88.5 35.5q-34 0 -60 -14t-40 -29q-19 -19 -26 -38t-7 -44q0 -30 9.5 -57.5t27 -48t42.5 -32.5t55 -12z" />
    <glyph glyph-name="seven.taboldstyle" horiz-adv-x="530" 
d="M454 428q-23 -61 -56 -131.5t-71 -142.5t-78 -141.5t-78 -127.5l-82 15q31 45 70 110t78 136.5t73 140.5t54 122v2h-298v73h388v-56z" />
    <glyph glyph-name="eight.taboldstyle" horiz-adv-x="530" 
d="M350 317q57 -20 93 -58.5t36 -92.5q0 -41 -17 -73.5t-47 -55.5t-69.5 -35.5t-84.5 -12.5q-47 0 -86.5 12.5t-67.5 34.5t-43.5 52.5t-15.5 66.5q0 55 34.5 94t90.5 64v3q-43 18 -72 49.5t-29 79.5q0 36 15 66t41.5 51t62.5 33t78 12t76.5 -12t59 -32t38 -48t13.5 -59
q0 -85 -106 -136v-3zM268 547q-46 0 -78.5 -25.5t-32.5 -69.5q0 -41 31.5 -67t88.5 -41q41 12 69 39t28 69q0 24 -9 41.5t-24 29.5t-34 18t-39 6zM262 52q27 0 50 7.5t40 21.5t27 33.5t10 43.5q0 48 -36.5 79.5t-105.5 49.5q-50 -17 -80.5 -49t-30.5 -74q0 -49 33.5 -80.5
t92.5 -31.5z" />
    <glyph glyph-name="nine.taboldstyle" horiz-adv-x="530" 
d="M83 -51q64 3 115 19t88.5 43.5t61.5 65t34 81.5h-2q-15 -25 -53.5 -46t-89.5 -21q-38 0 -72 13t-59.5 37.5t-40.5 60t-15 80.5t16.5 84t46 67.5t69 45t85.5 16.5q44 0 83 -16t67.5 -46.5t45 -75.5t16.5 -102q0 -82 -27 -149t-77.5 -115t-123 -76t-162.5 -31zM259 153
q38 0 71 19.5t47 45.5q7 10 11 25.5t4 34.5q0 34 -10.5 61.5t-28 47t-41 30t-49.5 10.5q-23 0 -45.5 -8.5t-40 -26t-28.5 -43.5t-11 -61t10 -60t26.5 -42t38.5 -25t46 -8z" />
    <glyph glyph-name="dollar.taboldstyle" horiz-adv-x="530" 
d="M238 -81v80q-41 1 -81.5 11.5t-66.5 27.5l24 61q22 -15 60 -25.5t74 -10.5q44 0 75 19t31 52q0 30 -23 48t-77 36q-78 26 -115.5 56.5t-37.5 81.5q0 50 39.5 84t103.5 42v86h57v-83q41 -2 73 -11.5t51 -20.5l-24 -60q-17 11 -48.5 20.5t-67.5 9.5q-41 0 -68.5 -16.5
t-27.5 -44.5q0 -14 5 -24.5t17.5 -20t33.5 -18.5t53 -20q75 -24 110.5 -57.5t35.5 -82.5q0 -48 -38.5 -87.5t-110.5 -50.5v-82h-57z" />
    <glyph glyph-name="cent.taboldstyle" horiz-adv-x="530" 
d="M417 70q-13 -7 -40 -14.5t-60 -9.5v-72h-55v73q-81 9 -131 60t-50 137q0 40 13 75t37 62t57 44.5t74 23.5v68h55v-66q30 0 56.5 -6.5t41.5 -13.5l-16 -60q-15 8 -39 13t-55 5q-63 0 -101.5 -39t-38.5 -102q0 -34 10.5 -60t29 -43.5t43.5 -26.5t53 -9q35 0 60.5 6.5
t41.5 13.5z" />
    <glyph glyph-name="Euro.taboldstyle" horiz-adv-x="530" 
d="M478 22q-17 -11 -54 -22t-83 -11q-50 0 -96.5 17t-82.5 53q-23 23 -38.5 53.5t-22.5 65.5h-63v49h56q-1 8 -1.5 13.5t-0.5 10.5q0 15 3 35h-57v48h64q17 71 63 117q38 38 87.5 56.5t101.5 18.5q45 0 74 -9t49 -19l-20 -62q-17 9 -42.5 16.5t-61.5 7.5q-33 0 -65 -11
t-58 -37q-15 -15 -26 -35t-15 -43h249v-48h-259q-1 -8 -1.5 -16t-0.5 -13v-14t1 -16h260v-49h-250q10 -44 39 -72q27 -26 57.5 -37.5t68.5 -11.5q37 0 66.5 8.5t46.5 17.5z" />
    <glyph glyph-name="sterling.taboldstyle" horiz-adv-x="530" 
d="M479 71v-71h-416v50q50 21 78.5 54t28.5 73q0 14 -2 29t-5 29h-91v56h80q-2 12 -3.5 24t-1.5 24q0 43 14 79t39 61.5t60.5 39.5t78.5 14q38 0 65 -7.5t44 -17.5l-19 -65q-14 8 -37 14.5t-53 6.5q-55 0 -82 -34t-27 -92q0 -22 5 -47h151v-56h-140q2 -11 3 -21.5t1 -21.5
q0 -40 -17.5 -70.5t-45.5 -48.5v-2h292z" />
    <glyph glyph-name="yen.taboldstyle" horiz-adv-x="530" 
d="M222 0v115h-153v49h153v60h-153v49h128l-150 242h94l85 -154q12 -23 21.5 -41.5t17.5 -36.5h3q8 19 19 39t23 41l90 152h91l-160 -242h127v-49h-154v-60h154v-49h-154v-115h-82z" />
    <glyph glyph-name="numbersign.taboldstyle" horiz-adv-x="530" 
d="M309 226l18 145h-103l-19 -145h104zM114 -3l22 170h-82v59h91l19 145h-86v59h95l22 165h59l-22 -165h104l22 165h59l-21 -165h82v-59h-91l-18 -145h86v-59h-95l-23 -170h-60l23 170h-104l-22 -170h-60z" />
    <glyph glyph-name="zero.superior" horiz-adv-x="336" 
d="M166 438q-66 0 -104.5 52.5t-38.5 146.5t39.5 147.5t107.5 53.5q69 0 106 -53t37 -144q0 -46 -9 -83.5t-27.5 -64t-46 -41t-64.5 -14.5zM167 489q38 0 57 39.5t19 111.5q0 70 -18.5 108.5t-56.5 38.5q-34 0 -54.5 -38.5t-20.5 -108.5q0 -73 20 -112t54 -39z" />
    <glyph glyph-name="one.superior" horiz-adv-x="244" 
d="M107 443v329h-2l-72 -35l-11 52l94 44h61v-390h-70z" />
    <glyph glyph-name="two.superior" horiz-adv-x="311" 
d="M12 480l63 59q62 56 94 95.5t32 77.5q0 29 -18.5 49.5t-57.5 20.5q-26 0 -48 -10.5t-36 -20.5l-21 45q20 17 52 29.5t70 12.5q35 0 60.5 -10t41.5 -26t23.5 -36.5t7.5 -40.5q0 -28 -10 -53t-28 -48.5t-42.5 -47t-52.5 -48.5l-31 -28v-2h171v-55h-270v37z" />
    <glyph glyph-name="three.superior" horiz-adv-x="305" 
d="M28 807q17 11 47.5 21t67.5 10q32 0 55 -8t38 -21t22 -30t7 -35q0 -30 -20.5 -54t-56.5 -36v-2q42 -6 67.5 -32.5t25.5 -64.5q0 -23 -10.5 -44.5t-30.5 -37.5t-49.5 -25.5t-67.5 -9.5q-36 0 -66.5 8.5t-47.5 19.5l18 50q12 -8 38 -17t55 -9q23 0 39.5 6t27 16t15.5 21.5
t5 23.5q0 19 -9 32t-24 21.5t-34 12.5t-39 4h-27v46h28q14 0 29.5 3.5t29 11t23 19.5t9.5 30t-14.5 33.5t-48.5 15.5q-27 0 -50 -9t-35 -17z" />
    <glyph glyph-name="four.superior" horiz-adv-x="347" 
d="M205 443v103h-189v40l177 249h79v-240h56v-49h-56v-103h-67zM205 713q0 17 1 32.5t2 30.5h-2q-9 -17 -17 -31t-17 -28l-87 -120l1 -2h119v118z" />
    <glyph glyph-name="five.superior" horiz-adv-x="308" 
d="M268 778h-155l-13 -85q6 1 13.5 1.5t17.5 0.5q25 0 48.5 -5t43.5 -17q23 -13 39.5 -38.5t16.5 -62.5q0 -29 -11.5 -53.5t-32 -42.5t-49 -28t-63.5 -10q-32 0 -60.5 7.5t-43.5 16.5l14 50q13 -8 36.5 -15t52.5 -7q17 0 33 5.5t28 15t19.5 23.5t7.5 32q0 35 -26 57.5
t-87 22.5q-17 0 -31.5 -1.5t-25.5 -2.5l26 191h202v-55z" />
    <glyph glyph-name="six.superior" horiz-adv-x="332" 
d="M267 785h-18.5t-21.5 -2q-60 -8 -93.5 -42.5t-41.5 -79.5h1q14 17 38 29t56 12q54 0 88 -34t34 -91q0 -29 -10.5 -54.5t-28.5 -44t-43.5 -29.5t-55.5 -11q-35 0 -62.5 12.5t-46.5 34.5t-29 53t-10 67q0 56 18.5 100t49.5 73q51 49 136 57q12 2 22 2.5t18 -0.5v-52z
M170 489q32 0 51.5 24t19.5 60q0 37 -20.5 59t-55.5 22q-23 0 -42 -12.5t-29 -32.5q-5 -10 -5 -21q0 -41 20.5 -70t60.5 -29z" />
    <glyph glyph-name="seven.superior" horiz-adv-x="294" 
d="M282 833v-43l-171 -347h-71l171 334v1h-192v55h263z" />
    <glyph glyph-name="eight.superior" horiz-adv-x="328" 
d="M167 838q31 0 54 -8.5t38 -22t22.5 -31t7.5 -35.5q0 -25 -14.5 -49t-48.5 -39v-2q34 -13 56 -37.5t22 -60.5q0 -52 -39.5 -83.5t-102.5 -31.5q-34 0 -59.5 9t-43 23.5t-26.5 33.5t-9 40q0 36 20.5 60.5t55.5 39.5v2q-32 15 -47 38t-15 49q0 47 37 76t92 29zM164 485
q33 0 52.5 18t19.5 45q0 32 -22 49t-57 27q-32 -9 -49 -28t-17 -44q0 -26 19 -46.5t54 -20.5zM165 792q-32 0 -48 -16.5t-16 -39.5q0 -26 19 -41.5t51 -23.5q23 7 39 23t16 40q0 21 -14.5 39.5t-46.5 18.5z" />
    <glyph glyph-name="nine.superior" horiz-adv-x="327" 
d="M58 491q8 -1 19 -0.5t23 1.5q23 3 45 11.5t39 22.5q41 33 51 92h-1q-33 -38 -90 -38q-54 0 -87.5 33.5t-33.5 86.5q0 28 10.5 53t29 44t44.5 30t57 11q68 0 104 -46.5t36 -118.5q0 -63 -19.5 -107.5t-49.5 -72.5q-25 -23 -59 -36t-72 -17q-13 -2 -25.5 -2t-20.5 1v52z
M161 788q-31 0 -51 -24.5t-20 -60.5q0 -32 19 -53.5t52 -21.5q25 0 43 10.5t28 25.5q4 7 4 20q0 43 -17.5 73.5t-57.5 30.5z" />
    <glyph glyph-name="period.superior" horiz-adv-x="131" 
d="M65 438q-20 0 -32 13t-12 32q0 20 12.5 32.5t32.5 12.5t31.5 -12.5t11.5 -32.5q0 -19 -12 -32t-32 -13z" />
    <glyph glyph-name="comma.superior" horiz-adv-x="131" 
d="M0 372q12 32 23 75t16 80l74 5q-12 -42 -30 -85.5t-35 -70.5z" />
    <glyph glyph-name="dollar.superior" horiz-adv-x="317" 
d="M134 392v59q-29 0 -55.5 7.5t-43.5 18.5l17 51q18 -11 42 -19t51 -8q32 0 50.5 14t18.5 37t-16.5 36.5t-51.5 27.5q-50 18 -77.5 41.5t-27.5 64.5q0 38 25.5 65t70.5 35v59h45v-56q28 -1 48.5 -7.5t34.5 -14.5l-16 -49q-10 6 -30.5 14t-51.5 8q-35 0 -48 -14.5t-13 -31.5
q0 -20 17 -33t59 -29q51 -18 74.5 -43.5t23.5 -66.5q0 -37 -25.5 -67t-75.5 -38v-61h-45z" />
    <glyph glyph-name="cent.superior" horiz-adv-x="315" 
d="M160 435v60q-30 4 -51.5 15t-38.5 29q-16 17 -25 42.5t-9 56.5q0 57 32.5 98.5t91.5 50.5v59h46v-57q19 0 35.5 -4.5t28.5 -10.5l-13 -49q-10 5 -24.5 9.5t-37.5 4.5q-42 0 -67 -27.5t-25 -69.5q0 -48 26.5 -72.5t64.5 -24.5q23 0 39.5 4t27.5 9l11 -47q-10 -5 -27.5 -10
t-38.5 -7v-59h-46z" />
    <glyph glyph-name="hyphen.superior" horiz-adv-x="191" 
d="M173 651v-48h-155v48h155z" />
    <glyph glyph-name="parenleft.superior" horiz-adv-x="180" 
d="M168 868q-30 -43 -51 -102.5t-21 -140.5q0 -80 21.5 -138t50.5 -102h-51q-14 18 -27.5 41.5t-24.5 53.5t-18 66t-7 79q0 44 7 80.5t18 66.5t24.5 54t27.5 42h51z" />
    <glyph glyph-name="parenright.superior" horiz-adv-x="180" 
d="M13 385q29 44 50.5 102.5t21.5 139.5q0 80 -21.5 138.5t-50.5 102.5h51q13 -18 27 -41.5t25 -53.5t18 -66.5t7 -79.5q0 -44 -7 -80t-18 -66t-25 -54t-27 -42h-51z" />
    <glyph glyph-name="zero.inferior" horiz-adv-x="336" 
d="M166 -151q-66 0 -104.5 52.5t-38.5 146.5t39.5 147.5t107.5 53.5q69 0 106 -53t37 -144q0 -46 -9 -83.5t-27.5 -64t-46 -41t-64.5 -14.5zM167 -100q38 0 57 39.5t19 111.5q0 70 -18.5 108.5t-56.5 38.5q-34 0 -54.5 -38.5t-20.5 -108.5q0 -73 20 -112t54 -39z" />
    <glyph glyph-name="one.inferior" horiz-adv-x="244" 
d="M107 -146v329h-2l-72 -35l-11 52l94 44h61v-390h-70z" />
    <glyph glyph-name="two.inferior" horiz-adv-x="311" 
d="M12 -109l63 59q62 56 94 95.5t32 77.5q0 29 -18.5 49.5t-57.5 20.5q-26 0 -48 -10.5t-36 -20.5l-21 45q20 17 52 29.5t70 12.5q35 0 60.5 -10t41.5 -26t23.5 -36.5t7.5 -40.5q0 -28 -10 -53t-28 -48.5t-42.5 -47t-52.5 -48.5l-31 -28v-2h171v-55h-270v37z" />
    <glyph glyph-name="three.inferior" horiz-adv-x="305" 
d="M28 218q17 11 47.5 21t67.5 10q32 0 55 -8t38 -21t22 -30t7 -35q0 -30 -20.5 -54t-56.5 -36v-2q42 -6 67.5 -32.5t25.5 -64.5q0 -23 -10.5 -44.5t-30.5 -37.5t-49.5 -25.5t-67.5 -9.5q-36 0 -66.5 8.5t-47.5 19.5l18 50q12 -8 38 -17t55 -9q23 0 39.5 6t27 16t15.5 21.5
t5 23.5q0 19 -9 32t-24 21.5t-34 12.5t-39 4h-27v46h28q14 0 29.5 3.5t29 11t23 19.5t9.5 30t-14.5 33.5t-48.5 15.5q-27 0 -50 -9t-35 -17z" />
    <glyph glyph-name="four.inferior" horiz-adv-x="347" 
d="M205 -146v103h-189v40l177 249h79v-240h56v-49h-56v-103h-67zM205 124q0 17 1 32.5t2 30.5h-2q-9 -17 -17 -31t-17 -28l-87 -120l1 -2h119v118z" />
    <glyph glyph-name="five.inferior" horiz-adv-x="308" 
d="M268 189h-155l-13 -85q6 1 13.5 1.5t17.5 0.5q25 0 48.5 -5t43.5 -17q23 -13 39.5 -38.5t16.5 -62.5q0 -29 -11.5 -53.5t-32 -42.5t-49 -28t-63.5 -10q-32 0 -60.5 7.5t-43.5 16.5l14 50q13 -8 36.5 -15t52.5 -7q17 0 33 5.5t28 15t19.5 23.5t7.5 32q0 35 -26 57.5
t-87 22.5q-17 0 -31.5 -1.5t-25.5 -2.5l26 191h202v-55z" />
    <glyph glyph-name="six.inferior" horiz-adv-x="332" 
d="M267 196h-18.5t-21.5 -2q-60 -8 -93.5 -42.5t-41.5 -79.5h1q14 17 38 29t56 12q54 0 88 -34t34 -91q0 -29 -10.5 -54.5t-28.5 -44t-43.5 -29.5t-55.5 -11q-35 0 -62.5 12.5t-46.5 34.5t-29 53t-10 67q0 56 18.5 100t49.5 73q51 49 136 57q12 2 22 2.5t18 -0.5v-52z
M170 -100q32 0 51.5 24t19.5 60q0 37 -20.5 59t-55.5 22q-23 0 -42 -12.5t-29 -32.5q-5 -10 -5 -21q0 -41 20.5 -70t60.5 -29z" />
    <glyph glyph-name="seven.inferior" horiz-adv-x="294" 
d="M282 244v-43l-171 -347h-71l171 334v1h-192v55h263z" />
    <glyph glyph-name="eight.inferior" horiz-adv-x="328" 
d="M167 249q31 0 54 -8.5t38 -22t22.5 -31t7.5 -35.5q0 -25 -14.5 -49t-48.5 -39v-2q34 -13 56 -37.5t22 -60.5q0 -52 -39.5 -83.5t-102.5 -31.5q-34 0 -59.5 9t-43 23.5t-26.5 33.5t-9 40q0 36 20.5 60.5t55.5 39.5v2q-32 15 -47 38t-15 49q0 47 37 76t92 29zM164 -104
q33 0 52.5 18t19.5 45q0 32 -22 49t-57 27q-32 -9 -49 -28t-17 -44q0 -26 19 -46.5t54 -20.5zM165 203q-32 0 -48 -16.5t-16 -39.5q0 -26 19 -41.5t51 -23.5q23 7 39 23t16 40q0 21 -14.5 39.5t-46.5 18.5z" />
    <glyph glyph-name="nine.inferior" horiz-adv-x="327" 
d="M58 -98q8 -1 19 -0.5t23 1.5q23 3 45 11.5t39 22.5q41 33 51 92h-1q-33 -38 -90 -38q-54 0 -87.5 33.5t-33.5 86.5q0 28 10.5 53t29 44t44.5 30t57 11q68 0 104 -46.5t36 -118.5q0 -63 -19.5 -107.5t-49.5 -72.5q-25 -23 -59 -36t-72 -17q-13 -2 -25.5 -2t-20.5 1v52z
M161 199q-31 0 -51 -24.5t-20 -60.5q0 -32 19 -53.5t52 -21.5q25 0 43 10.5t28 25.5q4 7 4 20q0 43 -17.5 73.5t-57.5 30.5z" />
    <glyph glyph-name="period.inferior" horiz-adv-x="131" 
d="M65 -151q-20 0 -32 13t-12 32q0 20 12.5 32.5t32.5 12.5t31.5 -12.5t11.5 -32.5q0 -19 -12 -32t-32 -13z" />
    <glyph glyph-name="comma.inferior" horiz-adv-x="131" 
d="M0 -217q12 32 23 75t16 80l74 5q-12 -42 -30 -85.5t-35 -70.5z" />
    <glyph glyph-name="dollar.inferior" horiz-adv-x="317" 
d="M134 -197v59q-29 0 -55.5 7.5t-43.5 18.5l17 51q18 -11 42 -19t51 -8q32 0 50.5 14t18.5 37t-16.5 36.5t-51.5 27.5q-50 18 -77.5 41.5t-27.5 64.5q0 38 25.5 65t70.5 35v59h45v-56q28 -1 48.5 -7.5t34.5 -14.5l-16 -49q-10 6 -30.5 14t-51.5 8q-35 0 -48 -14.5
t-13 -31.5q0 -20 17 -33t59 -29q51 -18 74.5 -43.5t23.5 -66.5q0 -37 -25.5 -67t-75.5 -38v-61h-45z" />
    <glyph glyph-name="cent.inferior" horiz-adv-x="315" 
d="M160 -154v60q-30 4 -51.5 15t-38.5 29q-16 17 -25 42.5t-9 56.5q0 57 32.5 98.5t91.5 50.5v59h46v-57q19 0 35.5 -4.5t28.5 -10.5l-13 -49q-10 5 -24.5 9.5t-37.5 4.5q-42 0 -67 -27.5t-25 -69.5q0 -48 26.5 -72.5t64.5 -24.5q23 0 39.5 4t27.5 9l11 -47
q-10 -5 -27.5 -10t-38.5 -7v-59h-46z" />
    <glyph glyph-name="hyphen.inferior" horiz-adv-x="191" 
d="M173 62v-48h-155v48h155z" />
    <glyph glyph-name="parenleft.inferior" horiz-adv-x="180" 
d="M168 279q-30 -43 -51 -102.5t-21 -140.5q0 -80 21.5 -138t50.5 -102h-51q-14 18 -27.5 41.5t-24.5 53.5t-18 66t-7 79q0 44 7 80.5t18 66.5t24.5 54t27.5 42h51z" />
    <glyph glyph-name="parenright.inferior" horiz-adv-x="180" 
d="M13 -204q29 44 50.5 102.5t21.5 139.5q0 80 -21.5 138.5t-50.5 102.5h51q13 -18 27 -41.5t25 -53.5t18 -66.5t7 -79.5q0 -44 -7 -80t-18 -66t-25 -54t-27 -42h-51z" />
    <glyph glyph-name="zero.numerator" horiz-adv-x="336" 
d="M166 261q-66 0 -104.5 52.5t-38.5 146.5t39.5 147.5t107.5 53.5q69 0 106 -53t37 -144q0 -46 -9 -83.5t-27.5 -64t-46 -41t-64.5 -14.5zM167 312q38 0 57 39.5t19 111.5q0 70 -18.5 108.5t-56.5 38.5q-34 0 -54.5 -38.5t-20.5 -108.5q0 -73 20 -112t54 -39z" />
    <glyph glyph-name="one.numerator" horiz-adv-x="244" 
d="M107 266v329h-2l-72 -35l-11 52l94 44h61v-390h-70z" />
    <glyph glyph-name="two.numerator" horiz-adv-x="311" 
d="M12 303l63 59q62 56 94 95.5t32 77.5q0 29 -18.5 49.5t-57.5 20.5q-26 0 -48 -10.5t-36 -20.5l-21 45q20 17 52 29.5t70 12.5q35 0 60.5 -10t41.5 -26t23.5 -36.5t7.5 -40.5q0 -28 -10 -53t-28 -48.5t-42.5 -47t-52.5 -48.5l-31 -28v-2h171v-55h-270v37z" />
    <glyph glyph-name="three.numerator" horiz-adv-x="305" 
d="M28 630q17 11 47.5 21t67.5 10q32 0 55 -8t38 -21t22 -30t7 -35q0 -30 -20.5 -54t-56.5 -36v-2q42 -6 67.5 -32.5t25.5 -64.5q0 -23 -10.5 -44.5t-30.5 -37.5t-49.5 -25.5t-67.5 -9.5q-36 0 -66.5 8.5t-47.5 19.5l18 50q12 -8 38 -17t55 -9q23 0 39.5 6t27 16t15.5 21.5
t5 23.5q0 19 -9 32t-24 21.5t-34 12.5t-39 4h-27v46h28q14 0 29.5 3.5t29 11t23 19.5t9.5 30t-14.5 33.5t-48.5 15.5q-27 0 -50 -9t-35 -17z" />
    <glyph glyph-name="four.numerator" horiz-adv-x="347" 
d="M205 266v103h-189v40l177 249h79v-240h56v-49h-56v-103h-67zM205 536q0 17 1 32.5t2 30.5h-2q-9 -17 -17 -31t-17 -28l-87 -120l1 -2h119v118z" />
    <glyph glyph-name="five.numerator" horiz-adv-x="308" 
d="M268 601h-155l-13 -85q6 1 13.5 1.5t17.5 0.5q25 0 48.5 -5t43.5 -17q23 -13 39.5 -38.5t16.5 -62.5q0 -29 -11.5 -53.5t-32 -42.5t-49 -28t-63.5 -10q-32 0 -60.5 7.5t-43.5 16.5l14 50q13 -8 36.5 -15t52.5 -7q17 0 33 5.5t28 15t19.5 23.5t7.5 32q0 35 -26 57.5
t-87 22.5q-17 0 -31.5 -1.5t-25.5 -2.5l26 191h202v-55z" />
    <glyph glyph-name="six.numerator" horiz-adv-x="332" 
d="M267 608h-18.5t-21.5 -2q-60 -8 -93.5 -42.5t-41.5 -79.5h1q14 17 38 29t56 12q54 0 88 -34t34 -91q0 -29 -10.5 -54.5t-28.5 -44t-43.5 -29.5t-55.5 -11q-35 0 -62.5 12.5t-46.5 34.5t-29 53t-10 67q0 56 18.5 100t49.5 73q51 49 136 57q12 2 22 2.5t18 -0.5v-52z
M170 312q32 0 51.5 24t19.5 60q0 37 -20.5 59t-55.5 22q-23 0 -42 -12.5t-29 -32.5q-5 -10 -5 -21q0 -41 20.5 -70t60.5 -29z" />
    <glyph glyph-name="seven.numerator" horiz-adv-x="294" 
d="M282 656v-43l-171 -347h-71l171 334v1h-192v55h263z" />
    <glyph glyph-name="eight.numerator" horiz-adv-x="328" 
d="M167 661q31 0 54 -8.5t38 -22t22.5 -31t7.5 -35.5q0 -25 -14.5 -49t-48.5 -39v-2q34 -13 56 -37.5t22 -60.5q0 -52 -39.5 -83.5t-102.5 -31.5q-34 0 -59.5 9t-43 23.5t-26.5 33.5t-9 40q0 36 20.5 60.5t55.5 39.5v2q-32 15 -47 38t-15 49q0 47 37 76t92 29zM164 308
q33 0 52.5 18t19.5 45q0 32 -22 49t-57 27q-32 -9 -49 -28t-17 -44q0 -26 19 -46.5t54 -20.5zM165 615q-32 0 -48 -16.5t-16 -39.5q0 -26 19 -41.5t51 -23.5q23 7 39 23t16 40q0 21 -14.5 39.5t-46.5 18.5z" />
    <glyph glyph-name="nine.numerator" horiz-adv-x="327" 
d="M58 314q8 -1 19 -0.5t23 1.5q23 3 45 11.5t39 22.5q41 33 51 92h-1q-33 -38 -90 -38q-54 0 -87.5 33.5t-33.5 86.5q0 28 10.5 53t29 44t44.5 30t57 11q68 0 104 -46.5t36 -118.5q0 -63 -19.5 -107.5t-49.5 -72.5q-25 -23 -59 -36t-72 -17q-13 -2 -25.5 -2t-20.5 1v52z
M161 611q-31 0 -51 -24.5t-20 -60.5q0 -32 19 -53.5t52 -21.5q25 0 43 10.5t28 25.5q4 7 4 20q0 43 -17.5 73.5t-57.5 30.5z" />
    <glyph glyph-name="period.numerator" horiz-adv-x="131" 
d="M65 261q-20 0 -32 13t-12 32q0 20 12.5 32.5t32.5 12.5t31.5 -12.5t11.5 -32.5q0 -19 -12 -32t-32 -13z" />
    <glyph glyph-name="comma.numerator" horiz-adv-x="131" 
d="M0 195q12 32 23 75t16 80l74 5q-12 -42 -30 -85.5t-35 -70.5z" />
    <glyph glyph-name="dollar.numerator" horiz-adv-x="317" 
d="M134 215v59q-29 0 -55.5 7.5t-43.5 18.5l17 51q18 -11 42 -19t51 -8q32 0 50.5 14t18.5 37t-16.5 36.5t-51.5 27.5q-50 18 -77.5 41.5t-27.5 64.5q0 38 25.5 65t70.5 35v59h45v-56q28 -1 48.5 -7.5t34.5 -14.5l-16 -49q-10 6 -30.5 14t-51.5 8q-35 0 -48 -14.5t-13 -31.5
q0 -20 17 -33t59 -29q51 -18 74.5 -43.5t23.5 -66.5q0 -37 -25.5 -67t-75.5 -38v-61h-45z" />
    <glyph glyph-name="cent.numerator" horiz-adv-x="315" 
d="M160 258v60q-30 4 -51.5 15t-38.5 29q-16 17 -25 42.5t-9 56.5q0 57 32.5 98.5t91.5 50.5v59h46v-57q19 0 35.5 -4.5t28.5 -10.5l-13 -49q-10 5 -24.5 9.5t-37.5 4.5q-42 0 -67 -27.5t-25 -69.5q0 -48 26.5 -72.5t64.5 -24.5q23 0 39.5 4t27.5 9l11 -47q-10 -5 -27.5 -10
t-38.5 -7v-59h-46z" />
    <glyph glyph-name="hyphen.numerator" horiz-adv-x="191" 
d="M173 474v-48h-155v48h155z" />
    <glyph glyph-name="parenleft.numerator" horiz-adv-x="180" 
d="M168 691q-30 -43 -51 -102.5t-21 -140.5q0 -80 21.5 -138t50.5 -102h-51q-14 18 -27.5 41.5t-24.5 53.5t-18 66t-7 79q0 44 7 80.5t18 66.5t24.5 54t27.5 42h51z" />
    <glyph glyph-name="parenright.numerator" horiz-adv-x="180" 
d="M13 208q29 44 50.5 102.5t21.5 139.5q0 80 -21.5 138.5t-50.5 102.5h51q13 -18 27 -41.5t25 -53.5t18 -66.5t7 -79.5q0 -44 -7 -80t-18 -66t-25 -54t-27 -42h-51z" />
    <glyph glyph-name="zero.denominator" horiz-adv-x="336" 
d="M166 -4q-66 0 -104.5 52.5t-38.5 146.5t39.5 147.5t107.5 53.5q69 0 106 -53t37 -144q0 -46 -9 -83.5t-27.5 -64t-46 -41t-64.5 -14.5zM167 47q38 0 57 39.5t19 111.5q0 70 -18.5 108.5t-56.5 38.5q-34 0 -54.5 -38.5t-20.5 -108.5q0 -73 20 -112t54 -39z" />
    <glyph glyph-name="one.denominator" horiz-adv-x="244" 
d="M107 1v329h-2l-72 -35l-11 52l94 44h61v-390h-70z" />
    <glyph glyph-name="two.denominator" horiz-adv-x="311" 
d="M12 38l63 59q62 56 94 95.5t32 77.5q0 29 -18.5 49.5t-57.5 20.5q-26 0 -48 -10.5t-36 -20.5l-21 45q20 17 52 29.5t70 12.5q35 0 60.5 -10t41.5 -26t23.5 -36.5t7.5 -40.5q0 -28 -10 -53t-28 -48.5t-42.5 -47t-52.5 -48.5l-31 -28v-2h171v-55h-270v37z" />
    <glyph glyph-name="three.denominator" horiz-adv-x="305" 
d="M28 365q17 11 47.5 21t67.5 10q32 0 55 -8t38 -21t22 -30t7 -35q0 -30 -20.5 -54t-56.5 -36v-2q42 -6 67.5 -32.5t25.5 -64.5q0 -23 -10.5 -44.5t-30.5 -37.5t-49.5 -25.5t-67.5 -9.5q-36 0 -66.5 8.5t-47.5 19.5l18 50q12 -8 38 -17t55 -9q23 0 39.5 6t27 16t15.5 21.5
t5 23.5q0 19 -9 32t-24 21.5t-34 12.5t-39 4h-27v46h28q14 0 29.5 3.5t29 11t23 19.5t9.5 30t-14.5 33.5t-48.5 15.5q-27 0 -50 -9t-35 -17z" />
    <glyph glyph-name="four.denominator" horiz-adv-x="347" 
d="M205 1v103h-189v40l177 249h79v-240h56v-49h-56v-103h-67zM205 271q0 17 1 32.5t2 30.5h-2q-9 -17 -17 -31t-17 -28l-87 -120l1 -2h119v118z" />
    <glyph glyph-name="five.denominator" horiz-adv-x="308" 
d="M268 336h-155l-13 -85q6 1 13.5 1.5t17.5 0.5q25 0 48.5 -5t43.5 -17q23 -13 39.5 -38.5t16.5 -62.5q0 -29 -11.5 -53.5t-32 -42.5t-49 -28t-63.5 -10q-32 0 -60.5 7.5t-43.5 16.5l14 50q13 -8 36.5 -15t52.5 -7q17 0 33 5.5t28 15t19.5 23.5t7.5 32q0 35 -26 57.5
t-87 22.5q-17 0 -31.5 -1.5t-25.5 -2.5l26 191h202v-55z" />
    <glyph glyph-name="six.denominator" horiz-adv-x="332" 
d="M267 343h-18.5t-21.5 -2q-60 -8 -93.5 -42.5t-41.5 -79.5h1q14 17 38 29t56 12q54 0 88 -34t34 -91q0 -29 -10.5 -54.5t-28.5 -44t-43.5 -29.5t-55.5 -11q-35 0 -62.5 12.5t-46.5 34.5t-29 53t-10 67q0 56 18.5 100t49.5 73q51 49 136 57q12 2 22 2.5t18 -0.5v-52z
M170 47q32 0 51.5 24t19.5 60q0 37 -20.5 59t-55.5 22q-23 0 -42 -12.5t-29 -32.5q-5 -10 -5 -21q0 -41 20.5 -70t60.5 -29z" />
    <glyph glyph-name="seven.denominator" horiz-adv-x="294" 
d="M282 391v-43l-171 -347h-71l171 334v1h-192v55h263z" />
    <glyph glyph-name="eight.denominator" horiz-adv-x="328" 
d="M167 396q31 0 54 -8.5t38 -22t22.5 -31t7.5 -35.5q0 -25 -14.5 -49t-48.5 -39v-2q34 -13 56 -37.5t22 -60.5q0 -52 -39.5 -83.5t-102.5 -31.5q-34 0 -59.5 9t-43 23.5t-26.5 33.5t-9 40q0 36 20.5 60.5t55.5 39.5v2q-32 15 -47 38t-15 49q0 47 37 76t92 29zM164 43
q33 0 52.5 18t19.5 45q0 32 -22 49t-57 27q-32 -9 -49 -28t-17 -44q0 -26 19 -46.5t54 -20.5zM165 350q-32 0 -48 -16.5t-16 -39.5q0 -26 19 -41.5t51 -23.5q23 7 39 23t16 40q0 21 -14.5 39.5t-46.5 18.5z" />
    <glyph glyph-name="nine.denominator" horiz-adv-x="327" 
d="M58 49q8 -1 19 -0.5t23 1.5q23 3 45 11.5t39 22.5q41 33 51 92h-1q-33 -38 -90 -38q-54 0 -87.5 33.5t-33.5 86.5q0 28 10.5 53t29 44t44.5 30t57 11q68 0 104 -46.5t36 -118.5q0 -63 -19.5 -107.5t-49.5 -72.5q-25 -23 -59 -36t-72 -17q-13 -2 -25.5 -2t-20.5 1v52z
M161 346q-31 0 -51 -24.5t-20 -60.5q0 -32 19 -53.5t52 -21.5q25 0 43 10.5t28 25.5q4 7 4 20q0 43 -17.5 73.5t-57.5 30.5z" />
    <glyph glyph-name="period.denominator" horiz-adv-x="131" 
d="M65 -4q-20 0 -32 13t-12 32q0 20 12.5 32.5t32.5 12.5t31.5 -12.5t11.5 -32.5q0 -19 -12 -32t-32 -13z" />
    <glyph glyph-name="comma.denominator" horiz-adv-x="131" 
d="M0 -70q12 32 23 75t16 80l74 5q-12 -42 -30 -85.5t-35 -70.5z" />
    <glyph glyph-name="dollar.denominator" horiz-adv-x="317" 
d="M134 -50v59q-29 0 -55.5 7.5t-43.5 18.5l17 51q18 -11 42 -19t51 -8q32 0 50.5 14t18.5 37t-16.5 36.5t-51.5 27.5q-50 18 -77.5 41.5t-27.5 64.5q0 38 25.5 65t70.5 35v59h45v-56q28 -1 48.5 -7.5t34.5 -14.5l-16 -49q-10 6 -30.5 14t-51.5 8q-35 0 -48 -14.5t-13 -31.5
q0 -20 17 -33t59 -29q51 -18 74.5 -43.5t23.5 -66.5q0 -37 -25.5 -67t-75.5 -38v-61h-45z" />
    <glyph glyph-name="cent.denominator" horiz-adv-x="315" 
d="M160 -7v60q-30 4 -51.5 15t-38.5 29q-16 17 -25 42.5t-9 56.5q0 57 32.5 98.5t91.5 50.5v59h46v-57q19 0 35.5 -4.5t28.5 -10.5l-13 -49q-10 5 -24.5 9.5t-37.5 4.5q-42 0 -67 -27.5t-25 -69.5q0 -48 26.5 -72.5t64.5 -24.5q23 0 39.5 4t27.5 9l11 -47q-10 -5 -27.5 -10
t-38.5 -7v-59h-46z" />
    <glyph glyph-name="hyphen.denominator" horiz-adv-x="191" 
d="M173 209v-48h-155v48h155z" />
    <glyph glyph-name="parenleft.denominator" horiz-adv-x="180" 
d="M168 426q-30 -43 -51 -102.5t-21 -140.5q0 -80 21.5 -138t50.5 -102h-51q-14 18 -27.5 41.5t-24.5 53.5t-18 66t-7 79q0 44 7 80.5t18 66.5t24.5 54t27.5 42h51z" />
    <glyph glyph-name="parenright.denominator" horiz-adv-x="180" 
d="M13 -57q29 44 50.5 102.5t21.5 139.5q0 80 -21.5 138.5t-50.5 102.5h51q13 -18 27 -41.5t25 -53.5t18 -66.5t7 -79.5q0 -44 -7 -80t-18 -66t-25 -54t-27 -42h-51z" />
    <glyph glyph-name="at.cap" horiz-adv-x="737" 
d="M469 461q-8 2 -20.5 4.5t-29.5 2.5q-33 0 -62 -14.5t-50.5 -39t-34 -57.5t-12.5 -69q0 -33 16.5 -54.5t49.5 -21.5q22 0 42 12.5t36.5 32t28 44t15.5 47.5zM524 29q-42 -22 -84.5 -31t-93.5 -9q-62 0 -117 21.5t-96 62t-65.5 98.5t-24.5 130q0 77 26 147t73.5 122.5
t115 83.5t150.5 31q65 0 118.5 -21.5t92 -60t59.5 -91.5t21 -116q0 -56 -14.5 -100.5t-39 -75t-57 -46.5t-67.5 -16q-30 0 -53 21t-21 67h-4q-52 -88 -141 -88q-22 0 -41.5 8.5t-34.5 25t-23.5 39.5t-8.5 53q0 46 17.5 89t49 76t75 52.5t95.5 19.5q32 0 59.5 -6t47.5 -15
l-34 -181q-11 -57 -3 -84t33 -28q19 0 38.5 12t35 35.5t25 57.5t9.5 78q0 54 -16 100t-47 79t-76 51.5t-103 18.5q-61 0 -115.5 -23.5t-95.5 -66.5t-65 -104.5t-24 -137.5q0 -63 19.5 -113t53.5 -85t81 -53.5t103 -18.5q43 0 81.5 9t69.5 26z" />
    <glyph glyph-name="emdash.cap" horiz-adv-x="1000" 
d="M970 359v-60h-940v60h940z" />
    <glyph glyph-name="endash.cap" horiz-adv-x="500" 
d="M470 359v-60h-440v60h440z" />
    <glyph glyph-name="exclamdown.cap" horiz-adv-x="230" 
d="M67 -3l14 477h68l15 -477h-97zM116 683q26 0 42 -17.5t16 -44.5q0 -26 -16 -44t-43 -18q-26 0 -42.5 18t-16.5 44q0 27 17 44.5t43 17.5z" />
    <glyph glyph-name="guillemotleft.cap" horiz-adv-x="419" 
d="M98 327l134 -184h-71l-132 184l132 184h71zM262 327l134 -184h-71l-132 184l132 184h71z" />
    <glyph glyph-name="guillemotright.cap" horiz-adv-x="419" 
d="M23 511h71l133 -184l-133 -184h-70l133 184zM186 511h71l133 -184l-133 -184h-70l133 184z" />
    <glyph glyph-name="guilsinglleft.cap" horiz-adv-x="255" 
d="M98 327l134 -184h-71l-132 184l132 184h71z" />
    <glyph glyph-name="guilsinglright.cap" horiz-adv-x="255" 
d="M23 511h70l134 -184l-133 -184h-71l134 184z" />
    <glyph glyph-name="hyphen.cap" horiz-adv-x="307" 
d="M277 378v-65h-247v65h247z" />
    <glyph glyph-name="questiondown.cap" horiz-adv-x="406" 
d="M237 685q27 0 43 -17.5t16 -44.5q0 -26 -16 -44.5t-43 -18.5t-43 18.5t-16 44.5q0 27 16.5 44.5t42.5 17.5zM275 481l3 -26q5 -41 -10 -83.5t-53 -87.5q-34 -41 -51.5 -71.5t-17.5 -64.5q0 -38 23.5 -61.5t71.5 -23.5q26 0 53.5 8t47.5 23l24 -64q-26 -17 -65 -28.5
t-79 -11.5q-43 0 -74.5 12.5t-52 32.5t-30.5 46.5t-10 55.5q0 51 25 90.5t62 81.5q32 40 45 74t11 72l-1 26h78z" />
    <glyph glyph-name="braceleft.cap" horiz-adv-x="284" 
d="M28 352q27 0 43 6.5t24.5 17t11 24t2.5 26.5q0 21 -2.5 42t-5.5 42t-5.5 41.5t-2.5 41.5q0 69 40.5 100t104.5 31h21v-55h-18q-45 0 -62 -22.5t-17 -63.5q0 -17 2 -35t5 -36q3 -19 5 -37.5t2 -38.5q1 -48 -18.5 -73.5t-53.5 -34.5v-2q34 -8 53.5 -34.5t18.5 -74.5
q0 -20 -2 -39t-5 -37q-3 -19 -5 -36.5t-2 -35.5q0 -42 18.5 -64.5t60.5 -22.5h18v-55h-21q-31 0 -57.5 7t-46 23.5t-30.5 42.5t-11 64q0 20 2.5 41t5.5 41t5.5 40.5t2.5 40.5q0 12 -2.5 25t-11 24t-24.5 18t-43 7v51z" />
    <glyph glyph-name="braceright.cap" horiz-adv-x="284" 
d="M256 301q-27 0 -43 -7t-24.5 -18t-11 -24t-2.5 -25q0 -20 2.5 -40.5t5.5 -40.5t5.5 -41t2.5 -41q0 -38 -11 -64t-30.5 -42.5t-46 -23.5t-57.5 -7h-21v55h17q42 1 61 23t19 64q0 18 -2.5 35.5t-4.5 36.5q-3 18 -5.5 37t-2.5 39q0 48 19.5 74.5t52.5 34.5v2
q-33 9 -52.5 34.5t-19.5 73.5q0 20 2.5 38.5t5.5 37.5q2 18 4.5 36t2.5 35q0 41 -17.5 63t-61.5 23h-18v55h20q64 0 105 -31t41 -100q0 -21 -2.5 -41.5t-5.5 -41.5t-5.5 -42t-2.5 -42q0 -13 2.5 -26.5t11 -24t24.5 -17t43 -6.5v-51z" />
    <glyph glyph-name="bracketleft.cap" horiz-adv-x="284" 
d="M82 -73v797h183v-55h-115v-687h115v-55h-183z" />
    <glyph glyph-name="bracketright.cap" horiz-adv-x="284" 
d="M202 725v-798h-183v55h115v688h-115v55h183z" />
    <glyph glyph-name="parenleft.cap" horiz-adv-x="284" 
d="M264 733q-55 -74 -90.5 -173.5t-35.5 -235.5q0 -67 9.5 -124.5t26.5 -107.5t40 -93.5t50 -80.5h-69q-24 31 -47 71t-42 90t-30.5 111t-11.5 134q0 74 12 135.5t30.5 111.5t41.5 90t47 72h69z" />
    <glyph glyph-name="parenright.cap" horiz-adv-x="284" 
d="M20 -82q27 37 50 80.5t40 94t26.5 108.5t9.5 126q0 134 -36 233t-90 173h68q24 -31 47.5 -70.5t42 -90t30 -111.5t11.5 -135t-11.5 -134.5t-30 -111t-42 -90.5t-47.5 -72h-68z" />
    <glyph glyph-name="periodcentered.cap" horiz-adv-x="207" 
d="M103 275q-26 0 -43 18t-16 45q0 27 17 45t43 18t42 -17.5t17 -45.5q0 -27 -16.5 -45t-43.5 -18z" />
    <glyph glyph-name="i.dot" horiz-adv-x="234" 
d="M73 0v484h88v-484h-88zM117 675q25 0 39.5 -16t14.5 -39q1 -23 -14.5 -38.5t-41.5 -15.5q-23 0 -38 15.5t-15 38.5t15.5 39t39.5 16z" />
    <glyph glyph-name="a.superior" horiz-adv-x="346" 
d="M245 266l-6 42h-2q-14 -18 -40 -32.5t-61 -14.5q-50 0 -76.5 28t-26.5 67q0 54 52 85t149 29v10q0 6 -2.5 16.5t-10.5 20.5t-22.5 17.5t-38.5 7.5t-46.5 -6.5t-39.5 -20.5l-16 43q22 16 52 24.5t62 8.5q37 0 62 -12t39 -31.5t20 -44.5t6 -52v-107q0 -42 6 -78h-60z
M235 427q-24 0 -48 -2t-43.5 -9.5t-32 -21t-12.5 -34.5q0 -25 17.5 -38t40.5 -13t40.5 11t27.5 25q10 17 10 27v55z" />
    <glyph glyph-name="acute.cap" horiz-adv-x="300" 
d="M304 827l-127 -117h-72l93 117h106z" />
    <glyph glyph-name="cedilla.cap" horiz-adv-x="300" 
d="M191 3l-32 -53q29 -5 50 -24.5t21 -50.5q0 -22 -9 -37.5t-23 -25t-33 -14t-38 -4.5q-20 0 -39 4.5t-32 12.5l14 45q24 -13 56 -13q17 0 29.5 7t12.5 23q0 20 -21.5 29.5t-56.5 13.5l47 87h54z" />
    <glyph glyph-name="circumflex.cap" horiz-adv-x="300" 
d="M183 824l104 -114h-73l-64 69h-2l-64 -69h-71l103 114h67z" />
    <glyph glyph-name="dieresis.cap" horiz-adv-x="300" 
d="M58 721q-23 0 -36 15t-13 36q0 20 14 35t35 15t34.5 -14.5t13.5 -35.5t-13 -36t-35 -15zM243 721q-22 0 -35.5 15t-13.5 36q0 20 14 35t36 15q21 0 34.5 -14.5t13.5 -35.5t-13 -36t-36 -15z" />
    <glyph glyph-name="grave.cap" horiz-adv-x="300" 
d="M104 827l93 -116h-72l-127 116h106z" />
    <glyph glyph-name="macron.cap" horiz-adv-x="300" 
d="M270 788v-55h-239v55h239z" />
    <glyph glyph-name="ring.cap" horiz-adv-x="400" 
d="M202 877q46 0 72.5 -26.5t26.5 -64.5t-27.5 -63t-71.5 -25q-46 0 -73.5 25.5t-27.5 62.5q0 38 27 64.5t74 26.5zM200 840q-23 0 -35 -16t-12 -38q0 -20 13 -35.5t34 -15.5q23 0 36 15t13 37t-13 37.5t-36 15.5z" />
    <glyph glyph-name="tilde.cap" horiz-adv-x="300" 
d="M26 715q-2 46 16.5 74t51.5 28q17 0 30 -6t29 -14q12 -7 24 -12.5t24 -5.5q11 0 18 7.5t9 31.5h46q2 -97 -67 -97q-16 0 -30 5.5t-31 13.5q-14 8 -25 13.5t-22 5.5q-12 0 -18 -12t-8 -32h-47z" />
    <glyph glyph-name="uni03BC" horiz-adv-x="553" 
d="M400 75q-8 -14 -20.5 -29t-29.5 -27t-39.5 -20t-49.5 -8q-33 0 -61.5 12.5t-44.5 40.5v-60q0 -20 0.5 -45t1.5 -50.5t3 -48.5t6 -38h-79q-8 23 -11 71.5t-3 106.5v504h87v-286q0 -28 6 -53t19.5 -43.5t34 -29.5t49.5 -11q22 0 40.5 7t33.5 18.5t25.5 26t16.5 29.5
q8 21 8 45v297h87v-351q0 -40 10 -57t36 -19l-7 -64q-8 -2 -13.5 -3t-16.5 -1q-32 0 -56 19.5t-30 66.5h-3z" />
    <glyph glyph-name="o.superior" horiz-adv-x="355" 
d="M179 591q36 0 65.5 -12.5t50 -34t31.5 -51.5t11 -65q0 -43 -14.5 -74.5t-37 -52t-51 -30.5t-57.5 -10q-33 0 -62 11.5t-50.5 32.5t-34 51t-12.5 67q0 39 13 70t35 53t51.5 33.5t61.5 11.5zM177 541q-24 0 -41.5 -10.5t-28.5 -27t-16.5 -37.5t-5.5 -41q0 -50 27.5 -82
t65.5 -32q40 0 66 31.5t26 83.5q0 19 -5.5 39t-16.5 37t-28.5 28t-42.5 11z" />
    <glyph glyph-name="slash.frac" horiz-adv-x="121" 
d="M-157 -11l379 672h57l-380 -672h-56z" />
    <glyph glyph-name="space.frac" horiz-adv-x="110" 
 />
    <glyph glyph-name="uni20BD" 
d="M168 338h67q75 0 117 34t42 101q0 59 -40.5 91t-108.5 32q-27 0 -46.5 -2.5t-30.5 -4.5v-251zM168 275v-77h224v-58h-224v-140h-85v140h-65v58h65v77h-65v63h65v310q30 5 69.5 9t91.5 4q66 0 111.5 -16.5t73 -42.5t39.5 -59t12 -66q0 -38 -11 -74t-39 -64.5t-75.5 -46
t-120.5 -17.5h-66z" />
    <glyph glyph-name="uni20BD.taboldstyle" horiz-adv-x="530" 
d="M183 272h67q42 0 70.5 8.5t45.5 22.5t24.5 33t7.5 39q0 19 -7.5 36t-24 30t-43 20.5t-63.5 7.5q-52 0 -77 -5v-192zM183 213v-60h225v-53h-225v-100h-85v100h-69v53h69v60h-69v59h69v250q30 4 69 7.5t89 3.5q106 0 166 -41.5t60 -115.5q0 -33 -12 -63t-39.5 -52
t-71.5 -35t-107 -13h-69z" />
    </font>
</defs>
</svg>
